<?xml version="1.0" standalone="no"?>
<!DOCTYPE svg PUBLIC "-//W3C//DTD SVG 1.1//EN" "http://www.w3.org/Graphics/SVG/1.1/DTD/svg11.dtd" >
<svg xmlns="http://www.w3.org/2000/svg">
<metadata>
Created by Ivan Drinchev. OFL license
This is a custom SVG font generated by IcoMoon.
<iconset grid="16"></iconset>
</metadata>
<defs>
<font id="MonoSocialIconsFont" horiz-adv-x="512" >
<font-face units-per-em="512" ascent="480" descent="-32" />
<missing-glyph horiz-adv-x="512" />
<glyph unicode="&#x72;&#x6f;&#x75;&#x6e;&#x64;&#x65;&#x64;&#x73;&#x74;&#x61;&#x63;&#x6b;&#x6f;&#x76;&#x65;&#x72;&#x66;&#x6c;&#x6f;&#x77;" d="M 317,429q 21.5,0 40.5-8.25t 33.25-22.5t 22.5-33.25t 8.25-40.5l0-209 q0-21.5 -8.25-40.75t-22.5-33.5t-33.25-22.5t-40.5-8.25l-209.5,0 q-21.5,0 -40.5,8.25t-33.25,22.5t-22.5,33.5t-8.25,40.75l0,209 q0,21.5 8.25,40.5t 22.5,33.25t 33.25,22.5t 40.5,8.25l 209.5,0 zM 196,281l 81.5-66l 16.5,20l-81.5,66zM 166.5,225.5l 94-46l 11.5,23.5
l-94,46zM 149.5,165l 102-23.5l 6,25.5l-102,23.5zM 147,102l 104.5,0 l0,26.5 l-104.5,0 l0-26.5 zM 304,207l-26.5,0 l0-118 l-156.5,0 l0,118 l-26.5,0 l0-144 l 209.5,0 l0,144 zM 322.5,261.5l-64,82.5l-20.5-16l 64-82.5zM 356.5,280.5l-44,95l-23.5-11l 44-95z" horiz-adv-x="425"  />
<glyph unicode="&#x72;&#x6f;&#x75;&#x6e;&#x64;&#x65;&#x64;&#x66;&#x69;&#x76;&#x65;&#x68;&#x75;&#x6e;&#x64;&#x72;&#x65;&#x64;&#x70;&#x78;" d="M 317,429q 21.5,0 40.5-8.25t 33.25-22.5t 22.5-33.25t 8.25-40.5l0-209 q0-21.5 -8.25-40.75t-22.5-33.5t-33.25-22.5t-40.5-8.25l-209.5,0 q-21.5,0 -40.5,8.25t-33.25,22.5t-22.5,33.5t-8.25,40.75l0,209 q0,21.5 8.25,40.5t 22.5,33.25t 33.25,22.5t 40.5,8.25l 209.5,0 zM 302.5,154.5q 22,0 31.25,13.75t 9.25,31.75q0,18.5 -9.25,32t-31.25,13.5
q-11.5,0 -20-4.75t-14.5-10.25q-7-6.5 -12-15q-5,8.5 -11.5,15q-5.5,5.5 -14.25,10.25t-20.75,4.75t-19.5-4.25t-11.5-9.25q-5-6 -7-13.5q-2.5,6.5 -7.5,12q-4,4.5 -10.75,8.25t-16.75,3.75q-6.5,0 -11.25-1.5t-8.25-3q-4-2 -6.5-4.5l 6,27.5l 52,0 l0,24.5 l-69.5,0 l-14.5-73l 26,0 q 2,3.5 5,6q 2.5,2.5 6.25,4.25
t 9.25,1.75q 11,0 15.75-7.5t 4.75-17q0-9 -7.5-16.5t-16-7.5q-7,0 -10.75,2.75t-6.25,6.25q-2.5,4 -3.5,9l-26,0 q 2-11 7.5-20q 4.5-7.5 13-13.5t 23-6t 23.25,3.75t 14.25,8.25q 6,5.5 9,12.5q 2-7 7-12.5q 4-4.5 11.5-8.25t 19.5-3.75t 20.75,4t 14.25,9.5q 6.5,6 11.5,14q 5-8 12-14q 6-5.5 14.5-9.5
t 20-4zM 299.5,221.5q 11,0 17-6t 6-15.5q0-9 -6-15t-17-6q-5.5,0 -10.75,3.25t-9.25,7.25q-5,4.5 -9,10.5q 4,5.5 9,10.5q 4,4 9.25,7.5t 10.75,3.5zM 212.5,221.5q 5.5,0 10.75-3.5t 9.25-7.5q 5-5 9-10.5q-4-6 -9-10.5q-4-4 -9.25-7.25t-10.75-3.25q-11.5,0 -17.5,6t-6,15q0,9.5 6,15.5t 17.5,6z
" horiz-adv-x="425"  />
<glyph unicode="&#x63;&#x69;&#x72;&#x63;&#x6c;&#x65;&#x73;&#x74;&#x61;&#x63;&#x6b;&#x6f;&#x76;&#x65;&#x72;&#x66;&#x6c;&#x6f;&#x77;" d="M 212.5,429q 43.5,0 81.5-16.5t 66.25-44.75t 44.75-66.25t 16.5-81.5t-16.5-81.5t-44.75-66.5t-66.25-45t-81.5-16.5t-81.5,16.5t-66.5,45t-45,66.5t-16.5,81.5t 16.5,81.5t 45,66.25t 66.5,44.75t 81.5,16.5zM 196,281l 81.5-66l 16.5,20l-81.5,66zM 166.5,225.5l 94-46l 11.5,23.5l-94,46zM 149.5,165l 102-23.5l 6,25.5
l-102,23.5zM 147,102l 104.5,0 l0,26.5 l-104.5,0 l0-26.5 zM 304,207l-26.5,0 l0-118 l-156.5,0 l0,118 l-26.5,0 l0-144 l 209.5,0 l0,144 zM 322.5,261.5l-64,82.5l-20.5-16l 64-82.5zM 356.5,280.5l-44,95l-23.5-11l 44-95z" horiz-adv-x="425"  />
<glyph unicode="&#x63;&#x69;&#x72;&#x63;&#x6c;&#x65;&#x66;&#x69;&#x76;&#x65;&#x68;&#x75;&#x6e;&#x64;&#x72;&#x65;&#x64;&#x70;&#x78;" d="M 299,222.5q 11,0 17-6t 6-15.5q0-9 -6-15t-17-6q-5.5,0 -10.75,3.25t-9.25,7.25q-5,4.5 -9,10.5q 4,5.5 9,10.5q 4,4 9.25,7.5t 10.75,3.5zM 211.5,222.5q 5.5,0 10.75-3.5t 9.25-7.5q 5-5 9-10.5q-4-6 -9-10.5q-4-4 -9.25-7.25t-10.75-3.25q-11,0 -17,6t-6,15q0,9.5 6,15.5t 17,6z
M 212,430q 43.5,0 81.75-16.5t 66.75-45t 45-66.5t 16.5-81.5t-16.5-81.75t-45-66.75t-66.75-45t-81.75-16.5t-81.5,16.5t-66.5,45t-45,66.75t-16.5,81.75t 16.5,81.5t 45,66.5t 66.5,45t 81.5,16.5zM 302.5,155q 22,0 31.25,13.5t 9.25,32t-9.5,32.25t-31,13.75q-11,0 -19.5-5t-14.5-10.5q-7-6.5 -12.5-15
q-5,8.5 -11.5,15q-5.5,5.5 -14.5,10.5t-21,5t-19.5-4.25t-11.5-9.75q-5-6 -6.5-13.5q-3,6.5 -8,12q-4,4.5 -10.5,8.25t-16.5,3.75q-7,0 -11.75-1.5t-8.25-3q-4-2 -6.5-4.5l 6,27.5l 52.5,0 l0,24.5 l-70,0 l-14.5-73.5l 26,0 q 2,3.5 5,6q 2.5,2.5 6.25,4.5t 9.25,2q 11,0 15.75-7.75t 4.75-16.75t-7.25-16.75t-16.25-7.75
q-7,0 -10.5,2.75t-6,6.25q-2.5,4 -3.5,9.5l-26.5,0 q 2-11 7.5-20q 4.5-7.5 13.25-13.5t 23.25-6q 14,0 23,3.75t 14.5,8.25q 6,5.5 9,12q 1.5-6.5 6.5-12q 4-4.5 11.5-8.25t 19.5-3.75t 21,4t 14.5,9.5q 6.5,6 11.5,14q 5.5-8 12.5-14q 6-5.5 14.5-9.5t 19.5-4z" horiz-adv-x="425"  />
<glyph unicode="&#x72;&#x6f;&#x75;&#x6e;&#x64;&#x65;&#x64;&#x66;&#x6f;&#x6f;&#x64;&#x73;&#x70;&#x6f;&#x74;&#x74;&#x69;&#x6e;&#x67;" d="M 317,429q 21.5,0 40.5-8.25t 33.25-22.5t 22.5-33.25t 8.25-40.5l0-209 q0-21.5 -8.25-40.75t-22.5-33.5t-33.25-22.5t-40.5-8.25l-209.5,0 q-21.5,0 -40.5,8.25t-33.25,22.5t-22.5,33.5t-8.25,40.75l0,209 q0,21.5 8.25,40.5t 22.5,33.25t 33.25,22.5t 40.5,8.25l 209.5,0 zM 94.5,194l 26.5,0 l0,130.5 l-26.5,0 l0-130.5 zM 148,167.5l-48,0 l0-77 l 14.5,0 l0,32.5 l 29,0 l0,13.5 l-29,0 
l0,18 l 33.5,0 l0,13 zM 201,97.5q 7.5,8 7.5,21q0,12.5 -7.5,21q-7.5,8 -18.5,8q-8,0 -13.5-3.5q-6.5-4 -9.5-10.5q-3-7 -3-14.5q0-9.5 3-16t 9.5-10.5q 8-3.5 13.5-3.5q 11,0 18.5,8.5zM 260.5,97.5q 7,8.5 7,21t-7,21q-7.5,8 -19,8q-8,0 -13.5-3.5q-6-4 -9-10.5q-3.5-8 -3.5-14.5q0-5 1-8.75t 2.5-7.25
q 3-6.5 9.5-10.5q 7-3.5 13-3.5q 11.5,0 19,8.5zM 324.5,167.5l-13.5,0 l0-27.5 q-6,7.5 -14.5,7.5q-9.5,0 -15.5-7.5q-6-7 -6-21.5t 6.5-21.5q 6-8 14.5-8q 4.5,0 8.5,2.5q 4,2 7.5,7l0-8 l 12.5,0 l0,77 zM 330,298.5q0,10.5 -7.75,18.25t-18.25,7.75l-26.5,0 l-13,26l-52,0 l-13.5-26l-26,0 q-11,0 -18.5-7.75t-7.5-18.25l0-78.5 
q0-11 7.5-18.5t 18.5-7.5l 131,0 q 10.5,0 18.25,7.5t 7.75,18.5l0,78.5 zM 241.5,135.5q 5,0 9-4.5q 3.5-4 3.5-12.5q0-9 -3.5-13q-4-4.5 -9-4.5q-5.5,0 -8.5,4.5q-3.5,4 -3.5,13q0,8.5 3.5,12.5q 3,4.5 8.5,4.5zM 182.5,135.5q 4.5,0 8.5-4.5q 3.5-4 3.5-12.5q0-9 -3.5-13q-4-4.5 -8.5-4.5q-5.5,0 -9,4.5q-3.5,4 -3.5,13q0,8.5 3.5,12.5q 3.5,4.5 9,4.5z
M 300,136.5q 5,0 8-4.5t 3-14q0-8.5 -3-13q-4-4 -8-4q-6,0 -9,5.5q-2.5,5 -2.5,13t 3.5,12.5q 3,4.5 8,4.5zM 238.5,311.5q 11,0 20.5-4.25t 16.5-11.25t 11-16.5t 4-20.5q0-22 -15-37t-37-15q-11,0 -20.5,4t-16.75,11t-11.25,16.5t-4,20.5t 4,20.5t 11.25,16.5t 16.75,11.25t 20.5,4.25zM 238.5,233q 11,0 18.5,7.5t 7.5,18.5
t-7.5,18.75t-18.5,7.75t-18.5-7.75t-7.5-18.75t 7.5-18.5t 18.5-7.5z" horiz-adv-x="425"  />
<glyph unicode="&#x72;&#x6f;&#x75;&#x6e;&#x64;&#x65;&#x64;&#x61;&#x70;&#x70;&#x73;&#x74;&#x6f;&#x72;&#x65;&#x61;&#x6c;&#x74;" d="M 212.5,337.5q 24,0 45.5-9.25t 37.5-25.25t 25.25-37.25t 9.25-45.75t-9.25-46t-25.25-37.5t-37.5-25.25t-45.5-9.25q-24.5,0 -46,9.25t-37.5,25.25t-25.25,37.5t-9.25,46t 9.25,45.75t 25.25,37.25t 37.5,25.25t 46,9.25zM 277.5,207l-39,0 l0,91.5 l-52.5,0 l0-91.5 l-39,0 l 65.5-65.5zM 317,429q 21.5,0 40.5-8.25t 33.25-22.5
t 22.5-33.25t 8.25-40.5l0-209 q0-21.5 -8.25-40.75t-22.5-33.5t-33.25-22.5t-40.5-8.25l-209.5,0 q-21.5,0 -40.5,8.25t-33.25,22.5t-22.5,33.5t-8.25,40.75l0,209 q0,21.5 8.25,40.5t 22.5,33.25t 33.25,22.5t 40.5,8.25l 209.5,0 zM 212.5,89q 27,0 50.75,10.25t 41.5,28t 28,41.75t 10.25,51t-10.25,50.75t-28,41.5t-41.5,28t-50.75,10.25
t-51-10.25t-41.75-28t-28-41.5t-10.25-50.75t 10.25-51t 28-41.75t 41.75-28t 51-10.25z" horiz-adv-x="425"  />
<glyph unicode="&#x72;&#x6f;&#x75;&#x6e;&#x64;&#x65;&#x64;&#x66;&#x72;&#x69;&#x65;&#x6e;&#x64;&#x73;&#x66;&#x65;&#x65;&#x64;" d="M 317,429q 21.5,0 40.5-8.25t 33.25-22.5t 22.5-33.25t 8.25-40.5l0-209 q0-21.5 -8.25-40.75t-22.5-33.5t-33.25-22.5t-40.5-8.25l-209.5,0 q-21.5,0 -40.5,8.25t-33.25,22.5t-22.5,33.5t-8.25,40.75l0,209 q0,21.5 8.25,40.5t 22.5,33.25t 33.25,22.5t 40.5,8.25l 209.5,0 zM 308.5,311l-34.5,0 q-13.5,0 -24.75-7.5t-18.25-19l0,26.5 l-34.5,0 
q-10.5,0 -19.75-4.5t-16.25-12.5t-11-18.25t-4-22.25l0-22.5 l-38,0 l0-38 l 38,0 l0-91.5 l 38,0 l0,91.5 l 19,0 l 19,0 l 1.5,0 l0-91.5 l 38,0 l0,91.5 l 38,0 l0,38 l-38,0 l0,22.5 q0,8.5 4.25,13.75t 8.75,5.25l 34.5,0 l0,38.5 zM 226,272.5q-3-9 -3-19l0-22.5 l-1.5,0 l-19,0 l-19,0 l0,22.5 q0,8.5 4.25,13.75t 8.75,5.25l 29.5,0 z" horiz-adv-x="425"  />
<glyph unicode="&#x63;&#x69;&#x72;&#x63;&#x6c;&#x65;&#x66;&#x6f;&#x6f;&#x64;&#x73;&#x70;&#x6f;&#x74;&#x74;&#x69;&#x6e;&#x67;" d="M 300,137q 4,0 8-4.5q 3-4.5 3-14q0-9 -3.5-13q-3-4 -7.5-4q-6,0 -9,5.5q-2.5,5 -2.5,13q0,9 3.5,12.5q 3,4.5 8,4.5zM 238.5,312q 10.5,0 20-4.25t 16.75-11.25t 11.25-16.5t 4-20.5t-4-20.5t-11.25-16.5t-16.75-11t-20-4q-11,0 -20.5,4t-16.75,11t-11.25,16.5t-4,20.5t 4,20.5t 11.25,16.5t 16.75,11.25t 20.5,4.25z
M 238.5,233.5q 11,0 18.5,7.5t 7.5,18.5t-7.5,18.75t-18.5,7.75t-18.75-7.75t-7.75-18.75t 7.75-18.5t 18.75-7.5zM 212,429.5q 43.5,0 81.5-16.5t 66.5-44.75t 45-66.25t 16.5-81.5t-16.5-81.5t-45-66.5t-66.5-45t-81.5-16.5t-81.5,16.5t-66.25,45t-44.75,66.5t-16.5,81.5t 16.5,81.5t 44.75,66.25t 66.25,44.75t 81.5,16.5zM 94.5,194.5
l 26,0 l0,130.5 l-26,0 l0-130.5 zM 148,168l-48,0 l0-77 l 14,0 l0,32.5 l 29,0 l0,13.5 l-29,0 l0,18 l 34,0 l0,13 zM 201,98q 7,7.5 7,21t-7,21q-7.5,8 -19,8q-8,0 -13.5-3.5q-6-4 -9-10.5q-3.5-8 -3.5-14.5q0-8 3.5-16q 3-6.5 9.5-10.5q 7-3.5 13.5-3.5q 11,0 18.5,8.5zM 260,98q 7.5,8 7.5,21q0,12.5 -7.5,21q-6.5,8 -18.5,8q-8,0 -13.5-3.5
q-6-4 -9-10.5q-3.5-6.5 -3.5-14.5q0-9.5 3.5-16q 3-7 9.5-10.5q 7-3.5 13-3.5q 11.5,0 18.5,8.5zM 324,168l-13,0 l0-27.5 q-6,7.5 -14.5,7.5q-9.5,0 -15.5-7.5q-6-7 -6-21.5q0-14 6-21.5q 7-8 15-8q 4.5,0 8.5,2.5q 4,2 7.5,7l0-8 l 12,0 l0,77 zM 330,299q0,10.5 -7.75,18.25t-18.75,7.75l-26,0 l-13,26l-52.5,0 
l-13-26l-26,0 q-11,0 -18.5-7.75t-7.5-18.25l0-78.5 q0-11 7.5-18.5t 18.5-7.5l 130.5,0 q 11,0 18.75,7.5t 7.75,18.5l0,78.5 zM 182,136q 5,0 9-4.5q 3.5-4 3.5-12.5q0-9 -3.5-13q-4-4.5 -9-4.5t-8.5,4.5q-3.5,4 -3.5,13q0,8.5 3.5,12.5q 3.5,4.5 8.5,4.5zM 241.5,136q 5,0 9-4.5q 3.5-5.5 3.5-12.5q0-8 -3.5-13q-4-4.5 -9-4.5
q-5.5,0 -8.5,4.5q-4,5 -4,13q0,7.5 4,12.5q 3,4.5 8.5,4.5z" horiz-adv-x="425"  />
<glyph unicode="&#x72;&#x6f;&#x75;&#x6e;&#x64;&#x65;&#x64;&#x67;&#x72;&#x6f;&#x6f;&#x76;&#x65;&#x73;&#x68;&#x61;&#x72;&#x6b;" d="M 317,429q 21.5,0 40.5-8.25t 33.25-22.5t 22.5-33.25t 8.25-40.5l0-209 q0-21.5 -8.25-40.75t-22.5-33.5t-33.25-22.5t-40.5-8.25l-209.5,0 q-21.5,0 -40.5,8.25t-33.25,22.5t-22.5,33.5t-8.25,40.75l0,209 q0,21.5 8.25,40.5t 22.5,33.25t 33.25,22.5t 40.5,8.25l 209.5,0 zM 212.5,89q 27,0 50.75,10.25t 41.5,28t 28,41.75t 10.25,51t-10.25,50.75
t-28,41.5t-41.5,28t-50.75,10.25t-51-10.25t-41.75-28t-28-41.5t-10.25-50.75t 10.25-51t 28-41.75t 41.75-28t 51-10.25zM 212.5,337.5q 24,0 45.5-9.25t 37.5-25.25t 25.25-37.25t 9.25-45.75q0-14.5 -3.5-28.25t-10-25.75q-9,6 -17.75,16.75t-16.5,21.75t-14,20.75t-9.75,13.75q-19,21 -37.75,35
t-46.25,22q-0.5-14.5 0-28.75t-0.75-27.5t-5.75-25t-14.5-20.75q-4.5-4 -11-7t-13.5-5t-14-2.75t-13-0.25q-3.5,10 -5.5,20t-2,21q0,24.5 9.25,45.75t 25.25,37.25t 37.5,25.25t 46,9.25z" horiz-adv-x="425"  />
<glyph unicode="&#x72;&#x6f;&#x75;&#x6e;&#x64;&#x65;&#x64;&#x70;&#x68;&#x6f;&#x74;&#x6f;&#x62;&#x75;&#x63;&#x6b;&#x65;&#x74;" d="M 255.5,285.5q 16-11 25.5-28t 9.5-37.5q0-21 -9.5-38t-25.5-27.5q-3-2.5 -9-5q-0.5-0.5 -0.75-0.5t-0.75-0.5q-2.5-1 -4.75-1.75t-4.75-1.75l-0.5,0 q-5.5-2 -9.5-2.5l-2.5,0 q-2.5-1 -5.25-1l-5.25,0 l-5.75,0 t-5.25,1l-2.5,0 q-4,0.5 -9.5,2.5l-0.5,0 q-2.5,1 -4.75,1.75t-4.75,1.75q-0.5,0.5 -0.75,0.5t-0.75,0.5q-4,2 -9,5
q-16,10.5 -25.5,27.5t-9.5,38q0,20.5 9.5,37.5t 25.5,28q 2.5,1 4.5,2.25t 4.5,2.75q 0.5,0 0.75,0.25t 0.75,0.25q 5,2.5 9.5,4l 0.5,0 q 2.5,1 4.75,1.25t 4.75,0.75q 1,0.5 2.5,0.5q 2.5,0.5 5.25,0.75t 5.75,0.25q 2.5,0 5.25-0.25t 5.25-0.75q 1.5,0 2.5-0.5q 2.5-0.5 4.75-0.75t 4.75-1.25l 0.5,0 q 4.5-1.5 9.5-4q 0.5,0 0.75-0.25t 0.75-0.25q 2.5-1.5 4.75-2.75t 4.25-2.25z
M 277.5,220q0,13.5 -5,25.5t-14,20.75t-20.75,14t-25.25,5.25l0-13.5 q 10.5,0 20-4t 16.75-11t 11.25-16.5t 4-20.5l 13,0 zM 317,429q 21.5,0 40.5-8.25t 33.25-22.5t 22.5-33.25t 8.25-40.5l0-209 q0-21.5 -8.25-40.75t-22.5-33.5t-33.25-22.5t-40.5-8.25l-209.5,0 q-21.5,0 -40.5,8.25t-33.25,22.5t-22.5,33.5t-8.25,40.75l0,209 
q0,21.5 8.25,40.5t 22.5,33.25t 33.25,22.5t 40.5,8.25l 209.5,0 zM 343,285.5q0,5.5 -3.75,9.25t-9.25,3.75l-71,0 q-10,6 -21.75,9.5t-24.75,3.5t-25-3.5t-22-9.5l-5.5,0 l-13,0 q0,5.5 -3.75,9.25t-9.25,3.75l-26.5,0 q-5.5,0 -9.25-3.75t-3.75-9.25q-5.5,0 -9.25-3.75t-3.75-9.25l0-131 q0-5.5 3.75-9.25t 9.25-3.75l 71,0 
q 20.5-13 47-13q 26,0 46.5,13l 18.5,0 l 13,0 l 39.5,0 q 5.5,0 9.25,3.75t 3.75,9.25l0,131 zM 148.5,285.5q-13-13 -20.25-29.75t-7.25-35.75t 7.25-36t 20.25-29.5l-41,0 l-13,0 l0,131 l 13,0 l 26.5,0 l 13,0 l 1.5,0 zM 317,285.5l 13,0 l0-131 l-13,0 l-26.5,0 l-3.5,0 l-5.5,0 l-4,0 l-1.5,0 q 13,12.5 20.5,29.5t 7.5,36t-7.5,35.75t-20.5,29.75l 5.5,0 l 35.5,0 z" horiz-adv-x="425"  />
<glyph unicode="&#x72;&#x6f;&#x75;&#x6e;&#x64;&#x65;&#x64;&#x64;&#x65;&#x73;&#x69;&#x67;&#x6e;&#x66;&#x6c;&#x6f;&#x61;&#x74;" d="M 317,429q 21.5,0 40.5-8.25t 33.25-22.5t 22.5-33.25t 8.25-40.5l0-209 q0-21.5 -8.25-40.75t-22.5-33.5t-33.25-22.5t-40.5-8.25l-209.5,0 q-21.5,0 -40.5,8.25t-33.25,22.5t-22.5,33.5t-8.25,40.75l0,209 q0,21.5 8.25,40.5t 22.5,33.25t 33.25,22.5t 40.5,8.25l 209.5,0 zM 212.5,102q 24,0 45.5,9.25t 37.5,25.25t 25.25,37.5t 9.25,46t-9.25,45.75
t-25.25,37.25t-37.5,25.25t-45.5,9.25q-24.5,0 -46-9.25t-37.5-25.25t-25.25-37.25t-9.25-45.75t 9.25-46t 25.25-37.5t 37.5-25.25t 46-9.25zM 212.5,261.5q 17.5,0 29.5-12t 12-29.5t-12-29.75t-29.5-12.25q-9,0 -16.5,3.25t-13.25,9t-9,13.5t-3.25,16.25t 3.25,16t 9,13.25t 13.25,9t 16.5,3.25zM 212.5,326
q 21.5,0 40.75-8.25t 33.75-22.75t 22.75-33.75t 8.25-41.25t-8.25-41.25t-22.75-33.75t-33.75-22.75t-40.75-8.25q-22,0 -41.25,8.25t-33.75,22.75t-22.75,33.75t-8.25,41.25t 8.25,41.25t 22.75,33.75t 33.75,22.75t 41.25,8.25zM 186,309.5q-29.5-6.5 -43.25-27t-19.75-49.5l 25.5,0 q 5.5,19.5 16.5,32.25t 21,18.25l0,26 z
M 186,156.5q-5,2.5 -10.5,5t-10.5,6.25t-9.5,10t-7,16.25l-25.5,0 q 3-15 7.75-25.5t 12.25-18t 18-12.25t 25-7.75l0,26 zM 158.5,220q0-11 4.25-20.75t 11.5-17t 17-11.5t 21.25-4.25q 11,0 20.75,4.25t 17,11.5t 11.5,17t 4.25,20.75t-4.25,20.75t-11.5,17t-17,11.5t-20.75,4.25q-11.5,0 -21.25-4.25t-17-11.5t-11.5-17
t-4.25-20.75zM 225.5,130.5q 14.5,3 27.25,7.75t 22.5,12.25t 16.75,18t 10,25.5l-26,0 q-2.5-10 -7.25-16.25t-11-10t-14.5-6.25t-17.75-5l0-26 zM 302,233q-6.5,29.5 -26.75,49.75t-49.75,26.75l0-26 q 40-10.5 50.5-50.5l 26,0 z" horiz-adv-x="425"  />
<glyph unicode="&#x72;&#x6f;&#x75;&#x6e;&#x64;&#x65;&#x64;&#x73;&#x74;&#x75;&#x6d;&#x62;&#x6c;&#x65;&#x75;&#x70;&#x6f;&#x6e;" d="M 317,429q 21.5,0 40.5-8.25t 33.25-22.5t 22.5-33.25t 8.25-40.5l0-209 q0-21.5 -8.25-40.75t-22.5-33.5t-33.25-22.5t-40.5-8.25l-209.5,0 q-21.5,0 -40.5,8.25t-33.25,22.5t-22.5,33.5t-8.25,40.75l0,209 q0,21.5 8.25,40.5t 22.5,33.25t 33.25,22.5t 40.5,8.25l 209.5,0 zM 343,311.5l-39,0 l0-131 q-1-3 -5.25-7.5t-6.75-5.5l-17,0 
q-2.5,0.5 -6.25,4.5t-4.25,6.5l0,60.5 q0,5 -1.5,13t-6.75,15.5t-15.25,12.75t-27,5.25l-73,0 q-9.5,0 -17.5-4.75t-13.75-12t-9-15.75t-3.25-16q0-8.5 3.25-14.75t 7.75-11.25t 9.75-8.5t 9.25-6l 32.5-12.5q 4-3 6.5-7.25t 3.5-6.75q-1-1 -2-1.75t-2.5-0.75l-84,0 l0-39 l 84,0 q 9,0 16.75,3.25t 13.75,9t 9.5,13
t 3.5,15.25q0,13 -8.5,27.25t-21.5,21.75l-32.5,13q-4.5,2.5 -6.5,4.25t-3,2.75q 1,2.5 2.5,4.75t 2.5,3.25l 72,0 q 5.5,0 8.5-1q 1.5-0.5 2-0.5q0-0.5 0.5-1.75t 0.5-3.75l0-60.5 q0-9 4.25-18t 11.5-16.25t 16-11.5t 17.75-4.25l 17,0 q 9,0 18,4.75t 16.5,12t 12,16.5t 4.5,18.25l0,131.5 z" horiz-adv-x="425"  />
<glyph unicode="&#x72;&#x6f;&#x75;&#x6e;&#x64;&#x65;&#x64;&#x74;&#x77;&#x69;&#x74;&#x74;&#x65;&#x72;&#x62;&#x69;&#x72;&#x64;" d="M 317,429.5q 21.5,0 40.5-8.25t 33.25-22.5t 22.5-33.25t 8.25-40.5l0-209 q0-21.5 -8.25-40.75t-22.5-33.5t-33.25-22.5t-40.5-8.25l-209.5,0 q-21.5,0 -40.5,8.25t-33.25,22.5t-22.5,33.5t-8.25,40.75l0,209 q0,21.5 8.25,40.5t 22.5,33.25t 33.25,22.5t 40.5,8.25l 209.5,0 zM 312,272q 14.5,10 25.5,26q-7-3 -14.25-5t-14.75-3q 16.5,10.5 22,28.5
q-15-9.5 -32-12.5q-15,16 -37.5,16q-10.5,0 -19.75-4t-16-11t-10.75-16.25t-4-19.75q0-3 0.25-5.75t 0.75-5.75q-31.5,1.5 -58.5,15.75t-46,37.25q-7-11.5 -7-25.5q0-13 6.25-24t 16.25-18q-6,0 -11.75,1.75t-11.25,4.25l0-0.5 q0-18.5 11.75-32.25t 29.25-17.75q-7-1.5 -13.5-1.5l-4.75,0 t-4.75,1
q 5-15.5 17.75-25.25t 29.75-10.25q-13-10 -29.25-16t-33.75-6q-3.5,0 -6.5,0.25t-6,0.75q 17-11 36.75-17t 41.25-6q 35,0 62,13.25t 45.25,34t 27.75,46.5t 9.5,51.25l0,6.5 z" horiz-adv-x="425"  />
<glyph unicode="&#x63;&#x69;&#x72;&#x63;&#x6c;&#x65;&#x74;&#x77;&#x69;&#x74;&#x74;&#x65;&#x72;&#x62;&#x69;&#x72;&#x64;" d="M 212,429.5q 43.5,0 81.5-16.5t 66.5-44.75t 45-66.25t 16.5-81.5t-16.5-81.5t-45-66.5t-66.5-45t-81.5-16.5t-81.5,16.5t-66.25,45t-44.75,66.5t-16.5,81.5t 16.5,81.5t 44.75,66.25t 66.25,44.75t 81.5,16.5zM 316,265.5q 14.5,11 25.5,26.5q-7-3 -14.25-5t-15.25-3q 8,5 14,12.25t 8.5,15.75q-7.5-4 -15.5-7.25
t-16.5-4.75q-7,7 -16.5,11.5t-21,4.5q-10.5,0 -19.75-4t-16-11t-10.75-16.25t-4-19.75q0-3 0.25-6t 0.75-5.5q-31.5,1.5 -58.5,15.5t-46,37.5q-7-11.5 -7-25.5q0-13 6.25-24.25t 16.25-18.25q-13,1 -23,6.5l0-0.5 q0-19 11.75-32.75t 29.25-17.25q-3.5-1 -6.75-1.5t-6.75-0.5q-2.5,0 -4.75,0.25t-4.75,0.75
q 5-15 17.75-25t 29.75-10q-13-10.5 -29.25-16.25t-33.75-5.75q-3.5,0 -6.5,0.25t-6,0.75q 17-11 36.75-17t 41.25-6q 35,0 62,13.25t 45.25,34t 27.75,46.5t 9.5,50.75l0,6.5 z" horiz-adv-x="425"  />
<glyph unicode="&#x63;&#x69;&#x72;&#x63;&#x6c;&#x65;&#x73;&#x74;&#x75;&#x6d;&#x62;&#x6c;&#x65;&#x75;&#x70;&#x6f;&#x6e;" d="M 212.5,429q 43.5,0 81.5-16.5t 66.25-44.75t 44.75-66.25t 16.5-81.5t-16.5-81.5t-44.75-66.5t-66.25-45t-81.5-16.5t-81.5,16.5t-66.5,45t-45,66.5t-16.5,81.5t 16.5,81.5t 45,66.25t 66.5,44.75t 81.5,16.5zM 343,311.5l-39,0 l0-131 q-1-3 -5.25-7.5t-6.75-5.5l-17,0 q-2.5,0.5 -6.25,4.5t-4.25,6.5l0,60.5 q0,5 -1.5,13t-6.75,15.5
t-15.25,12.75t-27,5.25l-73,0 q-9.5,0 -17.5-4.75t-13.75-12t-9-15.75t-3.25-16q0-8.5 3.25-14.75t 7.75-11.25t 9.75-8.5t 9.25-6l 32.5-12.5q 4-3 6.5-7.25t 3.5-6.75q-1-1 -2-1.75t-2.5-0.75l-84,0 l0-39 l 84,0 q 9,0 16.75,3.25t 13.75,9t 9.5,13t 3.5,15.25q0,13 -8.5,27.25t-21.5,21.75l-32.5,13
q-4.5,2.5 -6.5,4.25t-3,2.75q 1,2.5 2.5,4.75t 2.5,3.25l 72,0 q 5.5,0 8.5-1q 1.5-0.5 2-0.5q0-0.5 0.5-1.75t 0.5-3.75l0-60.5 q0-9 4.25-18t 11.5-16.25t 16-11.5t 17.75-4.25l 17,0 q 9,0 18,4.75t 16.5,12t 12,16.5t 4.5,18.25l0,131.5 z" horiz-adv-x="425"  />
<glyph unicode="&#x72;&#x6f;&#x75;&#x6e;&#x64;&#x65;&#x64;&#x66;&#x72;&#x69;&#x65;&#x6e;&#x64;&#x73;&#x74;&#x61;&#x72;" d="M 317,429q 21.5,0 40.5-8.25t 33.25-22.5t 22.5-33.25t 8.25-40.5l0-209 q0-21.5 -8.25-40.75t-22.5-33.5t-33.25-22.5t-40.5-8.25l-209.5,0 q-21.5,0 -40.5,8.25t-33.25,22.5t-22.5,33.5t-8.25,40.75l0,209 q0,21.5 8.25,40.5t 22.5,33.25t 33.25,22.5t 40.5,8.25l 209.5,0 zM 242,252.5q0-4 0.25-9.5t 1.25-11t 2.75-10t 4.25-7q 2-2.5 5-2.5l 0.5,0 
q 17.5,0 17.5,28.5q0,6.5 -1.75,12.5t-4.25,11t-6,8t-7,3l-1,0 q-10-1.5 -11.5-23zM 198,246.5q-2.5-8 -1-17t 5.5-15q 1.5-2.5 4-4.75t 6.5-2.75l 2,0 q 8.5,0 12.5,8t 4.5,18q0,7.5 -3,14.25t-7,10.75q-3.5,4 -8,4q-3.5,0 -7.75-2t-8.25-13.5zM 328.5,209.5q 2.5,14 1,25t-6,16q-4,4.5 -9,4.5l-1.5,0 q-11.5-1 -15-9.25
t-6.5-24.25q-1.5-7.5 -4.5-18.75t-9.75-21.5t-18-17.25t-28.25-6q-18.5,1 -27.5,6.5t-13.25,13t-5.5,16t-4.25,16q-1,2.5 -1.5,4.5t-1.5,4q-2.5,6 -7,12.75t-11,12.75t-14.5,10t-17.5,4l-33,0 l0-24.5 l 24,0 q 5.5,0 13.75-7.25t 10.75-19.75q 8.5-38.5 29.25-58t 52.25-19.5l 2.5,0 q 25,0.5 43.5,9.75t 30.75,22t 19,26.5t 8.25,22.75z" horiz-adv-x="425"  />
<glyph unicode="&#x63;&#x69;&#x72;&#x63;&#x6c;&#x65;&#x70;&#x68;&#x6f;&#x74;&#x6f;&#x62;&#x75;&#x63;&#x6b;&#x65;&#x74;" d="M 316.5,286.5l 13.5,0 l0-131 l-13.5,0 l-26,0 l-3.5,0 l-6,0 l-3.5,0 l-1.5,0 q 13,12.5 20.25,29.5t 7.25,36t-7.25,35.75t-20.25,29.75l 5,0 l 35.5,0 zM 148.5,286.5q-13-13 -20.5-29.75t-7.5-35.75t 7.5-36t 20.5-29.5l-41,0 l-13,0 l0,131 l 13,0 l 26,0 l 13.5,0 l 1.5,0 zM 255.5,286.5q 16-11 25.5-28t 9.5-37.5q0-21 -9.5-38t-25.5-27.5q-2.5-1.5 -4.5-2.75t-4.5-2.25q-0.5-0.5 -0.75-0.5
t-0.75-0.5q-4.5-2 -10-3.5q-5.5-2 -10-2.5l-2.5,0 q-2.5-0.5 -5.25-0.75t-5.25-0.25t-5.25,0.25t-5.25,0.75l-2.5,0 q-4,0.5 -9.5,2.5l-0.5,0 q-2.5,1 -4.75,1.75t-4.75,1.75l-2,1q-2.5,1 -4.5,2.25t-4,2.75q-16,10.5 -25.75,27.5t-9.75,38q0,20.5 9.75,37.5t 25.75,28q 2,1 4,2.25t 4.5,2.75q 1,0 1.25,0.25t 0.75,0.25q 5,2.5 9.5,4l 0.5,0 q 3.5,1 9.5,2
q 1,0.5 2.5,0.5q 2.5,0.5 5.25,0.75t 5.25,0.25t 5.25-0.25t 5.25-0.75q 2,0 2.5-0.5q 2.5-0.5 5-0.75t 5-1.25l 5-2l 5-2q 0.5,0 0.75-0.25t 0.75-0.25q 2.5-1.5 4.5-2.75t 4.5-2.25zM 277.5,221q0,13.5 -5.25,25.5t-14,20.75t-20.75,14t-25.5,5.25l0-13.5 q 11,0 20.5-4t 16.5-11t 11.25-16.5t 4.25-20.5l 13,0 zM 212,430q 43.5,0 81.5-16.5
t 66.5-44.75t 45-66.25t 16.5-81.5t-16.5-81.5t-45-66.5t-66.5-45t-81.5-16.5t-81.5,16.5t-66.25,45t-44.75,66.5t-16.5,81.5t 16.5,81.5t 44.75,66.25t 66.25,44.75t 81.5,16.5zM 343,286.5q0,5.5 -3.75,9.25t-9.25,3.75l-71,0 q-10,6 -22,9.5t-25,3.5t-24.75-3.5t-21.75-9.5l-5.5,0 l-13,0 q0,5.5 -4,9.25t-9.5,3.75l-26,0 
q-5.5,0 -9.25-3.75t-3.75-9.25q-5.5,0 -9.25-3.75t-3.75-9.25l0-131 q0-5.5 3.75-9.25t 9.25-3.75l 71,0 q 20.5-13 46.5-13q 26.5,0 47,13l 18.5,0 l 13,0 l 39.5,0 q 5.5,0 9.25,3.75t 3.75,9.25l0,131 z" horiz-adv-x="425"  />
<glyph unicode="&#x63;&#x69;&#x72;&#x63;&#x6c;&#x65;&#x66;&#x72;&#x69;&#x65;&#x6e;&#x64;&#x73;&#x66;&#x65;&#x65;&#x64;" d="M 212,430q 43.5,0 81.5-16.5t 66.5-44.75t 45-66.25t 16.5-81.5t-16.5-81.5t-45-66.5t-66.5-45t-81.5-16.5t-81.5,16.5t-66.25,45t-44.75,66.5t-16.5,81.5t 16.5,81.5t 44.75,66.25t 66.25,44.75t 81.5,16.5zM 308.5,312l-34.5,0 q-13.5,0 -24.75-7.5t-18.25-19l0,26.5 l-34.5,0 q-10.5,0 -19.75-4.5t-16.25-12.5t-11-18.25t-4-22.25l0-22.5 
l-38,0 l0-38 l 38,0 l0-91.5 l 38,0 l0,91.5 l 19,0 l 19,0 l 1,0 l0-91.5 l 38,0 l0,91.5 l 38,0 l0,38 l-38,0 l0,22.5 q0,8.5 4.25,13.75t 9.25,5.25l 34.5,0 l0,38.5 zM 226,273.5q-1.5-4.5 -2.5-9t-1-10l0-22.5 l-1,0 l-19,0 l-19,0 l0,22.5 q0,8.5 4.25,13.75t 8.75,5.25l 29.5,0 z" horiz-adv-x="425"  />
<glyph unicode="&#x72;&#x6f;&#x75;&#x6e;&#x64;&#x65;&#x64;&#x66;&#x65;&#x65;&#x64;&#x62;&#x75;&#x72;&#x6e;&#x65;&#x72;" d="M 317,429q 21.5,0 40.5-8.25t 33.25-22.5t 22.5-33.25t 8.25-40.5l0-209 q0-21.5 -8.25-40.75t-22.5-33.5t-33.25-22.5t-40.5-8.25l-209.5,0 q-21.5,0 -40.5,8.25t-33.25,22.5t-22.5,33.5t-8.25,40.75l0,209 q0,21.5 8.25,40.5t 22.5,33.25t 33.25,22.5t 40.5,8.25l 209.5,0 zM 191.5,348q-12-8.5 -23.25-23.75t-20.25-34t-14.5-38.75t-5.5-37.5
q0-24.5 6.25-44.25t 16.75-33.75t 25-21.75t 31.5-7.75q 16.5,0 32,7.25t 27.75,19.25t 19.75,27t 7.5,31q0,18 -4.5,31t-11.75,22.5t-16.75,16.5t-20,13q 3-16 0.25-28.25t-10-20.25t-17.5-11t-22.25,0.5q 11.5,19.5 14.5,32.75t 1.25,23.5t-6.25,18.25t-8.5,16.5t-5.25,18.25t 3.75,23.75zM 212.5,91.5q 24,0 45.5,4t 37.5,11t 25.25,16.25
t 9.25,19.75q0,9.5 -7,17.5t-19.5,15q-4.5-14 -14.25-26.5t-22.5-22t-28-15t-31.25-5.5q-30,0.5 -52,18.75t-32,51.25q-13.5-7 -21.25-15.25t-7.75-18.25q0-10.5 9.25-19.75t 25.25-16.25t 37.5-11t 46-4zM 207.5,123.5q-17-0.5 -31.25,8t-21.5,24t-5.25,37.25t 18,48.25q-3.5-15 -1.25-28t 8-22.5
t 13.75-14.75t 16.5-5.25q 19-0.5 30.75,15.75t 17.25,39.75q 15.5-12 19.75-29.25t-1.75-33.5t-21.75-27.75t-41.25-12z" horiz-adv-x="425"  />
<glyph unicode="&#x63;&#x69;&#x72;&#x63;&#x6c;&#x65;&#x64;&#x65;&#x73;&#x69;&#x67;&#x6e;&#x66;&#x6c;&#x6f;&#x61;&#x74;" d="M 212.5,263q 17.5,0 29.5-12.25t 12-29.75t-12-29.5t-29.5-12t-29.75,12t-12.25,29.5t 12.25,29.75t 29.75,12.25zM 212.5,327q 22,0 41.25-8.25t 33.75-22.75t 22.75-33.75t 8.25-41.25t-8.25-41.25t-22.75-33.75t-33.75-22.75t-41.25-8.25t-41.25,8.25t-33.75,22.75t-22.75,33.75t-8.25,41.25t 8.25,41.25
t 22.75,33.75t 33.75,22.75t 41.25,8.25zM 186.5,310.5q-29.5-6 -43.5-26.5t-20-50l 26,0 q 5,20 16.25,32.75t 21.25,18.25l0,25.5 zM 186.5,157.5q-5,2.5 -10.5,5t-10.75,6.5t-9.5,10t-6.75,16l-26,0 q 6-29.5 20-43.5t 43.5-20l0,26 zM 158.5,221q0-11 4.5-20.75t 11.75-17t 17-11.5t 20.75-4.25t 20.75,4.25t 17,11.5t 11.5,17t 4.25,20.75
t-4.25,21t-11.5,17.25t-17,11.5t-20.75,4.25t-20.75-4.25t-17-11.5t-11.75-17.25t-4.5-21zM 225.5,131.5q 14.5,3 27.25,7.75t 22.75,12.25t 16.75,18t 9.75,25.5l-26,0 q-2.5-10 -7-16t-11-10t-14.75-6.5t-17.75-5l0-26 zM 302,234q-6,30 -26.5,50.25t-50,26.25l0-25.5 q 19.5-5.5 32.5-18.25t 18-32.75l 26,0 zM 212.5,430.5
q 43.5,0 81.5-16.5t 66.5-44.75t 45-66.5t 16.5-81.75t-16.5-81.5t-45-66.5t-66.5-45t-81.5-16.5t-81.5,16.5t-66.5,45t-45,66.5t-16.5,81.5t 16.5,81.75t 45,66.5t 66.5,44.75t 81.5,16.5zM 212.5,103.5q 24.5,0 45.75,9.25t 37.25,25.25t 25.25,37.25t 9.25,45.75t-9.25,46t-25.25,37.5t-37.25,25.25t-45.75,9.25t-46-9.25t-37.5-25.25
t-25.25-37.5t-9.25-46t 9.25-45.75t 25.25-37.25t 37.5-25.25t 46-9.25z" horiz-adv-x="425"  />
<glyph unicode="&#x72;&#x6f;&#x75;&#x6e;&#x64;&#x65;&#x64;&#x67;&#x6f;&#x6f;&#x67;&#x6c;&#x65;&#x74;&#x61;&#x6c;&#x6b;" d="M 317,429q 21.5,0 40.5-8.25t 33.25-22.5t 22.5-33.25t 8.25-40.5l0-209 q0-21.5 -8.25-40.75t-22.5-33.5t-33.25-22.5t-40.5-8.25l-209.5,0 q-21.5,0 -40.5,8.25t-33.25,22.5t-22.5,33.5t-8.25,40.75l0,209 q0,21.5 8.25,40.5t 22.5,33.25t 33.25,22.5t 40.5,8.25l 209.5,0 zM 198,313.5q 19-2.5 35.5-9.5t 28.5-17.75t 18.75-24.5t 6.75-28.75
q0-19 -10.25-35t-27.75-27.5q 25.5,9.5 41,27.25t 15.5,39.75q0,15.5 -8.25,29.5t-22.5,24.25t-33.25,16.25t-40.5,6l-3.5,0 zM 272,160q 31.5,11.5 51.25,33.75t 19.75,49.75q0,19.5 -10.25,36.5t-28,29.75t-41.5,20.25t-50.75,7.5t-51-8t-41.75-21.25t-28-31t-10.25-37.25q0-17 8-32t 20.75-27t 28.75-20.5t 31.5-12
q-3.5-10.5 -11.75-23.5t-22.25-22q 23-2.5 43.5,2q 17.5,3.5 36.25,14.75t 30.25,34.75q-7-9 -18-17q-9.5-7 -24-13t-35-8q 6,8 10.5,15.5t 7.5,13q 3.5,6.5 6.5,12.5q-30,7 -54.5,22.25t-34.5,37.25q-1.5,5 -2.5,10t-1,10.5q0,18.5 8.25,34.5t 22.75,27.75t 35,18.25t 44.5,6.5q 24.5,0 45-6.25t 35.25-17.5t 23-26.75t 8.25-34.5
q0-25.5 -12.75-46.5t-38.75-33z" horiz-adv-x="425"  />
<glyph unicode="&#x72;&#x6f;&#x75;&#x6e;&#x64;&#x65;&#x64;&#x73;&#x6c;&#x69;&#x64;&#x65;&#x73;&#x68;&#x61;&#x72;&#x65;" d="M 317,429q 21.5,0 40.5-8.25t 33.25-22.5t 22.5-33.25t 8.25-40.5l0-209 q0-21.5 -8.25-40.75t-22.5-33.5t-33.25-22.5t-40.5-8.25l-209.5,0 q-21.5,0 -40.5,8.25t-33.25,22.5t-22.5,33.5t-8.25,40.75l0,209 q0,21.5 8.25,40.5t 22.5,33.25t 33.25,22.5t 40.5,8.25l 209.5,0 zM 252,298.5q-11.5,0 -19.75-8.5t-8.25-21q0-12 8.25-20.5t 19.75-8.5
t 19.75,8.5t 8.25,20.5q0,12.5 -8.25,21t-19.75,8.5zM 175.5,298.5q-11.5,0 -19.75-8.5t-8.25-21q0-12 8.25-20.5t 19.75-8.5t 19.75,8.5t 8.25,20.5q0,12.5 -8.25,21t-19.75,8.5zM 339,236.5q 4,8 3.75,11t-0.75,4q0,1 -1.5,1q-3.5,0 -8.5-5.5q-3-4 -10.75-8t-16.25-7.25t-16-5.5t-9.5-2.25l-41.5,0 q-7.5,0 -15.5-2
t-8-6l0-7 q-1.5,1 -3,2.5q-4.5,4.5 -10,7.75t-14,3.25l-1.5,0 l-4,0 q-11,0 -27,1.5t-27,4q-6,1.5 -13.25,5.75t-14.25,8.75q-6,3.5 -10.75,6.25t-7.25,2.75q-0.5,0 -0.5-0.5q-1.5-4 0.5-7.75t 7.5-10.75l 2.5-2.5q 3-4 10.75-8.75t 15.5-8.75t 14-6.5l 6.25-2.5l 0.5-0.5l0-47 q0-5 4.5-11t 10.75-11t 13.25-8.25t 12-3.25
q 10,0 17,5.5t 7,10.5l0,45 l 1.5-1q 3.5-2.5 9-3l0-41 q0-2.5 1.75-6.25t 6-7.5t 11.5-6.5t 17.75-2.75t 17.5,5.5t 11,12.75t 5.5,13.75t 1.5,8.5l0,43.5 l 0.5,0.5q 3.5,2 6.75,3.5t 6.75,3q 11.5,5.5 21.75,12t 16.25,18z" horiz-adv-x="425"  />
<glyph unicode="&#x72;&#x6f;&#x75;&#x6e;&#x64;&#x65;&#x64;&#x67;&#x6f;&#x77;&#x61;&#x6c;&#x6c;&#x61;&#x70;&#x69;&#x6e;" d="M 212.5,318q 13,0 24.5-5t 20-13.5t 13.5-20t 5-24.5t-5-24.5t-13.5-20t-20-13.5t-24.5-5t-24.75,5t-20.25,13.5t-13.5,20t-5,24.5t 5,24.5t 13.5,20t 20.25,13.5t 24.75,5zM 212.5,220q 14.5,0 24.5,10.25t 10,24.75t-10,24.75t-24.5,10.25t-24.75-10.25t-10.25-24.75t 10.25-24.75t 24.75-10.25zM 317,429q 21.5,0 40.5-8.25
t 33.25-22.5t 22.5-33.25t 8.25-40.5l0-209 q0-21.5 -8.25-40.75t-22.5-33.5t-33.25-22.5t-40.5-8.25l-209.5,0 q-21.5,0 -40.5,8.25t-33.25,22.5t-22.5,33.5t-8.25,40.75l0,209 q0,21.5 8.25,40.5t 22.5,33.25t 33.25,22.5t 40.5,8.25l 209.5,0 zM 230.5,172.5q 14,3 26.25,10.75t 21,18.75t 13.75,24.5t 5,28.5q0,17.5 -6.5,32.75t-18,26.75t-26.75,18.25
t-32.75,6.75t-33-6.75t-27-18.25t-18-26.75t-6.5-32.75q0-15 5-28.5t 13.75-24.5t 20.75-18.75t 26.5-10.75l 18.5-72z" horiz-adv-x="425"  />
<glyph unicode="&#x72;&#x6f;&#x75;&#x6e;&#x64;&#x65;&#x64;&#x64;&#x65;&#x76;&#x69;&#x61;&#x6e;&#x74;&#x61;&#x72;&#x74;" d="M 317,429q 21.5,0 40.5-8.25t 33.25-22.5t 22.5-33.25t 8.25-40.5l0-209 q0-21.5 -8.25-40.75t-22.5-33.5t-33.25-22.5t-40.5-8.25l-209.5,0 q-21.5,0 -40.5,8.25t-33.25,22.5t-22.5,33.5t-8.25,40.75l0,209 q0,21.5 8.25,40.5t 22.5,33.25t 33.25,22.5t 40.5,8.25l 209.5,0 zM 346,218q-12.5,16.5 -34,28q-18.5,10 -48.25,15.5t-73.75-2l-2,0 l-11,23
l-33.5-4l 13.5-28q-13.5-5.5 -22.25-12.5t-14-15t-7.5-16.25t-2.75-16.25q-1-18.5 7-38l 108,31l-29.5,60q 20,5.5 37.5,4t 31-6q 15.5-5.5 29-14l-36.5-9.5l-10.5,19.5q-7.5,1 -16,1.5t-17.5-1l 25-51zM 146.5,188q-3,7 -1.5,14q 1,6 5.5,13.5t 16,15l 16-32.5z" horiz-adv-x="425"  />
<glyph unicode="&#x63;&#x69;&#x72;&#x63;&#x6c;&#x65;&#x61;&#x70;&#x70;&#x73;&#x74;&#x6f;&#x72;&#x65;&#x61;&#x6c;&#x74;" d="M 212,339q 24.5,0 46-9.25t 37.5-25.25t 25.25-37.5t 9.25-46t-9.25-45.75t-25.25-37.25t-37.5-25.25t-46-9.25t-45.75,9.25t-37.25,25.25t-25.25,37.25t-9.25,45.75t 9.25,46t 25.25,37.5t 37.25,25.25t 45.75,9.25zM 277.5,208l-39,0 l0,91.5 l-52.5,0 l0-91.5 l-39,0 l 65-65.5zM 212,430.5q 43.5,0 81.5-16.5t 66.5-45t 45-66.5
t 16.5-81.5t-16.5-81.5t-45-66.25t-66.5-44.75t-81.5-16.5t-81.5,16.5t-66.25,44.75t-44.75,66.25t-16.5,81.5t 16.5,81.5t 44.75,66.5t 66.25,45t 81.5,16.5zM 212,90.5q 27,0 51,10.25t 41.75,28t 28,41.5t 10.25,50.75t-10.25,51t-28,41.75t-41.75,28t-51,10.25t-50.75-10.25t-41.5-28t-28-41.75t-10.25-51
t 10.25-50.75t 28-41.5t 41.5-28t 50.75-10.25z" horiz-adv-x="425"  />
<glyph unicode="&#x72;&#x6f;&#x75;&#x6e;&#x64;&#x65;&#x64;&#x73;&#x6f;&#x75;&#x6e;&#x64;&#x63;&#x6c;&#x6f;&#x75;&#x64;" d="M 317,429q 21.5,0 40.5-8.25t 33.25-22.5t 22.5-33.25t 8.25-40.5l0-209 q0-21.5 -8.25-40.75t-22.5-33.5t-33.25-22.5t-40.5-8.25l-209.5,0 q-21.5,0 -40.5,8.25t-33.25,22.5t-22.5,33.5t-8.25,40.75l0,209 q0,21.5 8.25,40.5t 22.5,33.25t 33.25,22.5t 40.5,8.25l 209.5,0 zM 93,216q-10.5-9 -10.5-22q0-13.5 10.5-21.5l0,43.5 zM 114.5,222.5l-2.5,0 
q-2.5,0 -4.25-0.25t-4.25-0.75l0-55 q 2.5-0.5 4.25-0.75t 4.25-0.25l 2.5,0 l0,57 zM 136.5,237.5q-6.5-8 -9-19.5q-0.5,0.5 -1,0.75t-1,0.75l0-54 l 11,0 l0,72 zM 158,253q-3-1 -5.75-2.5t-5.25-3l0-82 l 11,0 l0,87.5 zM 180,254.5q-2,0.5 -3.5,0.75t-3.5,0.25q-1,0 -2-0.25t-2-0.25l0-89.5 l 11,0 l0,89 zM 201.5,255.5q-1-2 -2.5-3.5t-2.5-3
q-5.5,3 -11,4.5l0-88 l 16,0 l0,90 zM 310.5,165.5q 16,1 23.75,10t 7.75,21.5q0,13 -8.75,22t-22.25,9q-5.5,0 -12-2.5q-2.5,20.5 -18,34.75t-37,14.25q-11,0 -20.25-3.75t-16.75-10.25l0-95 l 103.5,0 z" horiz-adv-x="425"  />
<glyph unicode="&#x72;&#x6f;&#x75;&#x6e;&#x64;&#x65;&#x64;&#x64;&#x65;&#x73;&#x69;&#x67;&#x6e;&#x62;&#x75;&#x6d;&#x70;" d="M 317,429q 21.5,0 40.5-8.25t 33.25-22.5t 22.5-33.25t 8.25-40.5l0-209 q0-21.5 -8.25-40.75t-22.5-33.5t-33.25-22.5t-40.5-8.25l-209.5,0 q-21.5,0 -40.5,8.25t-33.25,22.5t-22.5,33.5t-8.25,40.75l0,209 q0,21.5 8.25,40.5t 22.5,33.25t 33.25,22.5t 40.5,8.25l 209.5,0 zM 173,285.5l 26,0 l0-26.5 l 52.5-52l-52.5,0 l0-52.5 l 52.5,52.5l0,78.5 l 26,0 l-52,52
zM 186,220l 26.5,0 l-52.5,52l-52.5-52l 26.5,0 l0-118 l 52,0 l0,118 zM 225.5,128.5l-26.5,0 l0-26.5 l 26.5,0 l0,26.5 zM 317,141.5l-52.5,52.5l-52-52.5l 26,0 l0-39.5 l 52,0 l0,39.5 l 26.5,0 z" horiz-adv-x="425"  />
<glyph unicode="&#x72;&#x6f;&#x75;&#x6e;&#x64;&#x65;&#x64;&#x67;&#x6f;&#x6f;&#x67;&#x6c;&#x65;&#x62;&#x75;&#x7a;&#x7a;" d="M 317,429q 21.5,0 40.5-8.25t 33.25-22.5t 22.5-33.25t 8.25-40.5l0-209 q0-21.5 -8.25-40.75t-22.5-33.5t-33.25-22.5t-40.5-8.25l-209.5,0 q-21.5,0 -40.5,8.25t-33.25,22.5t-22.5,33.5t-8.25,40.75l0,209 q0,21.5 8.25,40.5t 22.5,33.25t 33.25,22.5t 40.5,8.25l 209.5,0 zM 212.5,324.5q-31.5,0 -58.25-12t-42.75-33l 67-64l 100.5,92.5
q-14.5,8 -31.75,12.25t-34.75,4.25zM 94.5,231.5q0-37 32.5-63.5l 41.5,38.5l-64.5,61q-9.5-17.5 -9.5-36zM 212.5,138.5q 44.5,0 78.5,24l-74,70l-82-76l-0.5-1q-3.5-7 -8.25-14t-11.25-11.5q 3-0.5 7-1t 9.5-0.5q 24,0 43,13l 3,1.5l 2.5-0.5q 17-4 32.5-4zM 301.5,171q 28.5,26 28.5,60.5q0,20 -10,38t-29,31
l-63.5-59z" horiz-adv-x="425"  />
<glyph unicode="&#x72;&#x6f;&#x75;&#x6e;&#x64;&#x65;&#x64;&#x74;&#x65;&#x63;&#x68;&#x6e;&#x6f;&#x72;&#x61;&#x74;&#x69;" d="M 225.5,306q 15,0 28.25-4.5t 23-12t 15.5-17.75t 5.75-21.75t-5.75-21.75t-15.5-17.75t-23-12t-28.25-4.5t-28.5,4.5t-23.25,12t-15.5,17.75t-5.75,21.75t 5.75,21.75t 15.5,17.75t 23.25,12t 28.5,4.5zM 317,429q 21.5,0 40.5-8.25t 33.25-22.5t 22.5-33.25t 8.25-40.5l0-209 q0-21.5 -8.25-40.75t-22.5-33.5t-33.25-22.5
t-40.5-8.25l-209.5,0 q-21.5,0 -40.5,8.25t-33.25,22.5t-22.5,33.5t-8.25,40.75l0,209 q0,21.5 8.25,40.5t 22.5,33.25t 33.25,22.5t 40.5,8.25l 209.5,0 zM 225.5,149q 24.5,0 45.75,8t 37.25,21.5t 25.25,32t 9.25,39.5t-9.25,39.25t-25.25,31.75t-37.25,21.5t-45.75,8t-46-8t-37.5-21.5t-25.25-31.75t-9.25-39.25q0-20 8.25-37.25
t 22.75-30.75l-8.5-66.5l 55.5,39.5q 18.5-6 40-6z" horiz-adv-x="425"  />
<glyph unicode="&#x72;&#x6f;&#x75;&#x6e;&#x64;&#x65;&#x64;&#x66;&#x6f;&#x75;&#x72;&#x73;&#x71;&#x75;&#x61;&#x72;&#x65;" d="M 165.5,199l-4-1q-7-3 -13-3q-16.5,0 -28,12.5t-11.5,30t 11.5,29.75t 28,12.25q 8,0 15.25-3.25t 12.5-9t 8.5-13.5t 3.25-16.25q0-8 -3-15.5l-1-3l 27.5-41.5l 103,112l0-44.5 l-103-94.5zM 317,429q 21.5,0 40.5-8.25t 33.25-22.5t 22.5-33.25t 8.25-40.5l0-209 q0-21.5 -8.25-40.75t-22.5-33.5t-33.25-22.5
t-40.5-8.25l-209.5,0 q-21.5,0 -40.5,8.25t-33.25,22.5t-22.5,33.5t-8.25,40.75l0,209 q0,21.5 8.25,40.5t 22.5,33.25t 33.25,22.5t 40.5,8.25l 209.5,0 zM 330,327.5l-8.5-9.5l-76.5-82l-32.5,33.5l-13.5-14q-5.5,17 -19.25,27.75t-31.25,10.75q-11.5,0 -21.25-4.5t-17-12.25t-11.5-18t-4.25-21.75t 4.25-21.75t 11.5-18t 16.75-12.5t 20.5-4.75
l 65-68.5l 75,79l-7.5,8l 50,40l0,10.5 l0,66.5 l0,8 l0,3.5 z" horiz-adv-x="425"  />
<glyph unicode="&#x63;&#x69;&#x72;&#x63;&#x6c;&#x65;&#x67;&#x72;&#x6f;&#x6f;&#x76;&#x65;&#x73;&#x68;&#x61;&#x72;&#x6b;" d="M 212,429q 43.5,0 81.5-16.5t 66.5-44.75t 45-66.25t 16.5-81.5t-16.5-81.5t-45-66.5t-66.5-45t-81.5-16.5t-81.5,16.5t-66.25,45t-44.75,66.5t-16.5,81.5t 16.5,81.5t 44.75,66.25t 66.25,44.75t 81.5,16.5zM 212,89q 27,0 51,10.25t 41.75,28t 28,41.75t 10.25,51t-10.25,50.75t-28,41.5t-41.75,28t-51,10.25
t-50.75-10.25t-41.5-28t-28-41.5t-10.25-50.75t 10.25-51t 28-41.75t 41.5-28t 50.75-10.25zM 212,337.5q 24.5,0 46-9.25t 37.5-25.25t 25.25-37.25t 9.25-45.75q0-14.5 -3.5-28.25t-10-25.75q-9,6 -17.75,16.75t-16.5,21.75t-14,20.75t-9.75,13.75q-19,21 -37.75,35t-46.25,22q-0.5-14.5 0-28.75
t-0.75-27.5t-5.75-25t-15-20.75q-4.5-4 -10.75-7t-13.25-5t-14-2.75t-13-0.25q-7.5,19.5 -7.5,41q0,24.5 9.25,45.75t 25.25,37.25t 37.25,25.25t 45.75,9.25z" horiz-adv-x="425"  />
<glyph unicode="&#x72;&#x6f;&#x75;&#x6e;&#x64;&#x65;&#x64;&#x67;&#x6f;&#x6f;&#x67;&#x6c;&#x65;&#x70;&#x6c;&#x75;&#x73;" d="M 317,424.5q 21.5,0 40.5-8.25t 33.25-22.5t 22.5-33.25t 8.25-40.5l0-209 q0-21.5 -8.25-40.75t-22.5-33.5t-33.25-22.5t-40.5-8.25l-209.5,0 q-21.5,0 -40.5,8.25t-33.25,22.5t-22.5,33.5t-8.25,40.75l0,209 q0,21.5 8.25,40.5t 22.5,33.25t 33.25,22.5t 40.5,8.25l 209.5,0 zM 224,107q 22.5,19.5 22.5,45q0,16.5 -7.5,27t-16.25,18.25t-16.25,14
t-7.5,13.75q0,8.5 7.5,15.25t 15.5,15.25q 5,5.5 8.75,14.5t 3.75,21q0,7 -1.75,13.5t-4.75,13.5q-6,12.5 -17.5,19.5l 21.5,0 l 21.5,13l-69.5,0 q-7,0 -14.5-1t-15-2.5q-22-4.5 -37-22.5q-15-17.5 -15-39.5q0-24 16.5-39q 17-15.5 40.5-15.5l 5.25,0 t 6.25,0.5q-0.5-1 -1.25-3.25t-1.25-3.25q-1-4 -1-7q0-11.5 10-23.5
q-23-0.5 -48.5-8q-13-4 -23-11.5t-15-17.5q-6-11.5 -6-21q0-14 7-23.5t 18-15.25t 23.5-8.25t 24-2.5q 42,0 66.5,20.5zM 349,309.5l-40.5,0 l0,41 l-20.5,0 l0-41 l-40.5,0 l0-20 l 40.5,0 l0-40.5 l 20.5,0 l0,40.5 l 40.5,0 l0,20 zM 203.5,275q0-16 -6.75-25.5t-22.25-9.5q-10.5,0 -18.75,6.25t-13.75,15.75t-8.5,20.25t-3,19.75q0,16 8,26
q 8,11 23,11q 10.5,0 18.75-6.5t 13.25-16.5q 10-21 10-41zM 217.5,156q 2-3 3-5.5t 1.75-5.5t 0.75-6.5q0-10.5 -4.5-17.75t-11.75-11.5t-16-6.25t-17.75-2q-10,0 -20.25,2.25t-19.25,7.25t-14.75,13.5t-5.75,19.5q0,14.5 9,23.25t 22,12.75q 17,5 34,5q 6,0 8-0.5l 4.5-3q 4.5-3 5.5-4l 4.5-3.5q 3.5-2.5 5.5-4
l 4-4q 3-2.5 4.25-4.5t 3.25-5z" horiz-adv-x="425"  />
<glyph unicode="&#x63;&#x69;&#x72;&#x63;&#x6c;&#x65;&#x67;&#x6f;&#x6f;&#x67;&#x6c;&#x65;&#x70;&#x6c;&#x75;&#x73;" d="M 206.5,275.5q0-16 -7-25.5t-22.5-9.5q-10.5,0 -18.75,6.25t-13.75,15.5t-8.5,20t-3,19.75q0,14.5 8,26.5q 8.5,11 23,11q 10.5,0 19-6.5t 13-16.5q 5-10 7.75-20.75t 2.75-20.25zM 220.5,156q 1.5-1.5 2.5-5.5q 2.5-5 2.5-12q0-10.5 -4.5-17.5t-11.75-11.25t-16-6.25t-17.75-2q-21,0 -39.5,9.5q-9,5 -14.5,13.25
t-5.5,19.25q0,15 8.75,23.5t 21.75,12.5q 9,3 17.25,4.25t 16.75,1.25q 2.5,0 4.5-0.25t 3.5-0.25l 4.5-3.5q 2.5-1 3.5-2t 2-1.5l 5-3.5q 2-1.5 3-2.5l 2-2q 1-0.5 4.5-4q 2.5-2.5 4-4.5t 3.5-5zM 212.5,430q 43.5,0 81.5-16.5t 66.5-44.75t 45-66.5t 16.5-81.75t-16.5-81.5t-45-66.5t-66.5-45t-81.5-16.5t-81.5,16.5t-66.5,45t-45,66.5
t-16.5,81.5t 16.5,81.75t 45,66.5t 66.5,44.75t 81.5,16.5zM 225.5,107.5q 22.5,19.5 22.5,44.5q0,16.5 -7.5,27.25t-16.5,18.5t-16.5,13.75t-7.5,13.5q0,9 7.75,15.75t 15.25,15.25q 5.5,5.5 9.25,14.5t 3.75,21q0,12.5 -6.5,26.5q-6,13 -17.5,20l 21.5,0 l 21.5,12.5l-69.5,0 q-14.5,0 -29.5-3q-22-5 -37-22.5t-15-39.5q0-24 16.5-39q 17-15.5 40.5-15.5l 5.25,0 
t 6.25,0.5q-0.5-1 -1.25-3.25l-1.25-3.75q-1-1.5 -1-6.5q0-11.5 10-23.5q-24-0.5 -48.5-8q-13-4 -23-11.5t-15-17.5q-6-11.5 -6-21.5q0-13.5 7-23t 18-15.5t 23.5-8.5t 24-2.5q 42.5,0 66.5,21zM 350.5,310l-40.5,0 l0,40.5 l-20.5,0 l0-40.5 l-40.5,0 l0-20 l 40.5,0 l0-41 l 20.5,0 l0,41 l 40.5,0 l0,20 z" horiz-adv-x="425"  />
<glyph unicode="&#x63;&#x69;&#x72;&#x63;&#x6c;&#x65;&#x67;&#x6f;&#x77;&#x61;&#x6c;&#x6c;&#x61;&#x70;&#x69;&#x6e;" d="M 212,429q 43.5,0 81.5-16.5t 66.5-44.75t 45-66.25t 16.5-81.5t-16.5-81.5t-45-66.5t-66.5-45t-81.5-16.5t-81.5,16.5t-66.25,45t-44.75,66.5t-16.5,81.5t 16.5,81.5t 44.75,66.25t 66.25,44.75t 81.5,16.5zM 230.5,172.5q 14,3 26.25,10.75t 21,18.75t 13.75,24.5t 5,28.5q0,17.5 -6.75,32.75t-18.25,26.75t-26.75,18.25
t-32.75,6.75t-32.75-6.75t-26.75-18.25t-18-26.75t-6.5-32.75q0-15 5-28.5t 13.75-24.5t 20.75-18.75t 26-10.75l 18.5-72zM 212,318q 13,0 24.5-5t 20.25-13.5t 13.75-20t 5-24.5t-5-24.5t-13.75-20t-20.25-13.5t-24.5-5t-24.5,5t-20,13.5t-13.5,20t-5,24.5t 5,24.5t 13.5,20t 20,13.5t 24.5,5zM 212,220
q 14.5,0 24.75,10.25t 10.25,24.75t-10.25,24.75t-24.75,10.25t-24.5-10.25t-10-24.75t 10-24.75t 24.5-10.25z" horiz-adv-x="425"  />
<glyph unicode="&#x72;&#x6f;&#x75;&#x6e;&#x64;&#x65;&#x64;&#x69;&#x6e;&#x73;&#x74;&#x61;&#x67;&#x72;&#x61;&#x6d;" d="M 283,220q0,8.5 -2.5,18.5l 21,0 l0-101 q0-4 -2.75-6.5t-6.75-2.5l-164.5,0 q-4,0 -6.5,2.5t-2.5,6.5l0,101 l 20.5,0 q-2.5-10 -2.5-18.5q0-15 5.75-28.5t 15.75-23.25t 23.5-15.5t 28.5-5.75t 28.5,5.75t 23.25,15.5t 15.5,23.25t 5.75,28.5zM 210,174.5q-9.5,0 -18,3.5t-14.75,9.75t-9.75,14.5t-3.5,17.75t 3.5,18t 9.75,14.75t 14.75,9.75t 18,3.5
t 17.75-3.5t 14.5-9.75t 9.75-14.75t 3.5-18t-3.5-17.75t-9.75-14.5t-14.5-9.75t-17.75-3.5zM 292,311.5q 4,0 6.75-2.5t 2.75-6.5l0-27.5 q0-4 -2.75-6.5t-6.75-2.5l-27.5,0 q-4,0 -6.5,2.5t-2.5,6.5l0,27.5 q0,4 2.5,6.5t 6.5,2.5l 27.5,0 zM 316.5,429.5q 21.5,0 40.75-8.25t 33.5-22.5t 22.5-33.25t 8.25-40.5l0-209 q0-21.5 -8.25-40.75t-22.5-33.5
t-33.5-22.5t-40.75-8.25l-209,0 q-21.5,0 -40.5,8.25t-33.25,22.5t-22.5,33.5t-8.25,40.75l0,209 q0,21.5 8.25,40.5t 22.5,33.25t 33.25,22.5t 40.5,8.25l 209,0 zM 329,311.5q0,11.5 -8,19.5t-19.5,8l-183,0 q-11.5,0 -19.5-8t-8-19.5l0-183 q0-11.5 8-19.5t 19.5-8l 183,0 q 11.5,0 19.5,8t 8,19.5l0,183 z" horiz-adv-x="425"  />
<glyph unicode="&#x72;&#x6f;&#x75;&#x6e;&#x64;&#x65;&#x64;&#x79;&#x61;&#x68;&#x6f;&#x6f;&#x62;&#x75;&#x7a;&#x7a;" d="M 317,429q 21.5,0 40.5-8.25t 33.25-22.5t 22.5-33.25t 8.25-40.5l0-209 q0-21.5 -8.25-40.75t-22.5-33.5t-33.25-22.5t-40.5-8.25l-209.5,0 q-21.5,0 -40.5,8.25t-33.25,22.5t-22.5,33.5t-8.25,40.75l0,209 q0,21.5 8.25,40.5t 22.5,33.25t 33.25,22.5t 40.5,8.25l 209.5,0 zM 225.5,102q 16,0 30.25,6.25t 25,17t 17,25t 6.25,30.25
q0,16.5 -6.25,30.75t-17,24.75t-25,16.75t-30.25,6.25l-26.5,0 l0-39 l 26.5,0 q 16,0 27.5-11.5t 11.5-28q0-16 -11.5-27.5t-27.5-11.5q-16.5,0 -28,11.5t-11.5,27.5l0,39.5 l0,117.5 l-39,0 l0-157 q0-16 6.25-30.25t 16.75-25t 24.75-17t 30.75-6.25z" horiz-adv-x="425"  />
<glyph unicode="&#x72;&#x6f;&#x75;&#x6e;&#x64;&#x65;&#x64;&#x64;&#x65;&#x6c;&#x69;&#x63;&#x69;&#x6f;&#x75;&#x73;" d="M 317,429q 21.5,0 40.5-8.25t 33.25-22.5t 22.5-33.25t 8.25-40.5l0-209 q0-21.5 -8.25-40.75t-22.5-33.5t-33.25-22.5t-40.5-8.25l-209.5,0 q-21.5,0 -40.5,8.25t-33.25,22.5t-22.5,33.5t-8.25,40.75l0,209 q0,21.5 8.25,40.5t 22.5,33.25t 33.25,22.5t 40.5,8.25l 209.5,0 zM 317,324.5l-104.5,0 l0-104.5 l-105,0 l0-104.5 l 105,0 l0,104.5 l 104.5,0 l0,104.5 z" horiz-adv-x="425"  />
<glyph unicode="&#x72;&#x6f;&#x75;&#x6e;&#x64;&#x65;&#x64;&#x77;&#x6f;&#x72;&#x64;&#x70;&#x72;&#x65;&#x73;&#x73;" d="M 317,429q 21.5,0 40.5-8.25t 33.25-22.5t 22.5-33.25t 8.25-40.5l0-209 q0-21.5 -8.25-40.75t-22.5-33.5t-33.25-22.5t-40.5-8.25l-209.5,0 q-21.5,0 -40.5,8.25t-33.25,22.5t-22.5,33.5t-8.25,40.75l0,209 q0,21.5 8.25,40.5t 22.5,33.25t 33.25,22.5t 40.5,8.25l 209.5,0 zM 94.5,233q0-17.5 4.75-33.5t 13.5-29.75t 21-24.75t 27.25-18l-56,154
q-5-11.5 -7.75-23.25t-2.75-24.75zM 212.5,115.5q 21,0 39,6.5q-1,1 -1,1.5l-36,99l-35.5-102.5q 15.5-4.5 33.5-4.5zM 271,161.5l 12,39.5q 8.5,23 8.5,38q0,11 -3,18.75t-6.5,13.75q-4.5,7 -8,13.75t-3.5,13.75q0,8 5.5,14.5t 14,6.5q 0.5,0 0.75-0.25t 0.75-0.25q-15.5,14.5 -35.75,22.75t-43.25,8.25q-31.5,0 -57-14.5t-41.5-38.5
l 7.5,0 l 10,0 t 10.5,0.5l 11,1q 2,0 3.5-1.25t 1.5-3t-1-3.5t-3.5-1.75q-2,0 -4-0.5q-5-1 -9.5-1l 43-127.5l 26,77.5l-18.5,50q-2.5,0 -4.5,0.25t-4,0.75t-4,0.5q-2.5,0 -3.5,1.5t-0.75,3.5t 1.5,3.25t 3.75,1.25l 11-1q 4.5-0.5 10-0.5l 10,0 l 9.75,0 t 10.25,0.5l 11,1q 2.5,0 3.75-1.25t 1.5-3t-0.75-3.5t-3.5-1.75q-2,0 -4-0.5q-5-1 -9.5-1zM 271.5,131.5
q 26.5,15 42.5,41.75t 16,59.75q0,15.5 -3.75,29.5t-10.75,27q 0.5-3 0.75-6t 0.25-6q0-9 -2-19.25t-7-23.25z" horiz-adv-x="425"  />
<glyph unicode="&#x63;&#x69;&#x72;&#x63;&#x6c;&#x65;&#x74;&#x65;&#x63;&#x68;&#x6e;&#x6f;&#x72;&#x61;&#x74;&#x69;" d="M 225.5,306q 15,0 28.25-4.5t 23-12t 15.5-17.75t 5.75-21.75t-5.75-21.75t-15.5-17.75t-23-12t-28.25-4.5t-28.5,4.5t-23.25,12t-15.5,17.75t-5.75,21.75t 5.75,21.75t 15.5,17.75t 23.25,12t 28.5,4.5zM 212.5,429q 43.5,0 81.5-16.5t 66.25-44.75t 44.75-66.25t 16.5-81.5t-16.5-81.5t-44.75-66.5t-66.25-45t-81.5-16.5
t-81.5,16.5t-66.5,45t-45,66.5t-16.5,81.5t 16.5,81.5t 45,66.25t 66.5,44.75t 81.5,16.5zM 225.5,149q 24.5,0 45.75,8t 37.25,21.5t 25.25,32t 9.25,39.5t-9.25,39.25t-25.25,31.75t-37.25,21.5t-45.75,8t-46-8t-37.5-21.5t-25.25-31.75t-9.25-39.25q0-20 8.25-37.25t 22.75-30.75l-8.5-66.5l 55.5,39.5q 18.5-6 40-6z" horiz-adv-x="425"  />
<glyph unicode="&#x72;&#x6f;&#x75;&#x6e;&#x64;&#x65;&#x64;&#x77;&#x69;&#x6b;&#x69;&#x70;&#x65;&#x64;&#x69;&#x61;" d="M 317,429q 21.5,0 40.5-8.25t 33.25-22.5t 22.5-33.25t 8.25-40.5l0-209 q0-21.5 -8.25-40.75t-22.5-33.5t-33.25-22.5t-40.5-8.25l-209.5,0 q-21.5,0 -40.5,8.25t-33.25,22.5t-22.5,33.5t-8.25,40.75l0,209 q0,21.5 8.25,40.5t 22.5,33.25t 33.25,22.5t 40.5,8.25l 209.5,0 zM 343,311l-0.5,0.5l-54,0 l-1-0.5l0-5.5 q0-0.5 1-1.5q 0.5-0.5 1.5-0.5l 4.5-0.5
q 4,0 5.75-1t 3.25-2.5q 3.5-2.5 1-10.5l-48-125.5l-1.5,0.5l-30.5,68.5q0,0.5 0.25,0.75t 0.25,0.75l0,0.5 l 25,51q 2.5,4 4.25,7.5t 2.75,5q 2,3.5 3.75,4.25t 7.25,1.25q 2.5,0 2.5,2l0,5.5 l-0.5,0.5l-44,0 l-1-0.5l0-5.5 q0-0.5 1-1.5q 0.5-0.5 1.5-0.5l 2-0.5q 7.5,0 9-2.5q 1-1.5 1.25-3.75t-2.25-7.75l-19.5-42l-17,39q-4,9.5 -4.5,12.75t 6,4.25l 3.5,0.5
q 2,0 2,2l0,5.5 l-1,0.5l-46.5,0 l-1-0.5l0-5.5 q0-2 3.5-2q 3-0.5 4.75-1.25t 3.25-2.5t 3.25-5.5t 4.75-10.25q 0.5-1 1-2.5t 1.5-3.5t 2-4.5l 18-39q 0.5-1.5 1.5-3.5t 1.75-4.25t 2.25-5.25l-26.5-58l-1.5,0.5q-12,27.5 -22,51.5q-4.5,10.5 -8.75,21.25t-8.5,20.75t-7.75,18.5t-5.5,14.5q-1.5,5 -1.5,7.5q0,5 8,5l 6,0.5q 2.5,0 2.5,2l0,5 l-0.5,0.5l-26,0 
l-33,0 l-0.5-0.5l0-5.5 q0-1.5 3.5-1.5q 9.5-1 12-3.5q 2-2 7-13.5q 5.5-15 13.5-34.5t 16.75-40t 17-40.25t 14.25-34.75q 3-8 7-8.75t 9.5,9.25q 2.5,5 6.25,13.25t 8,17.75t 8.5,19.25t 8.25,18.75q 3.5-9 7.5-18.75t 8-19.25t 7.25-17.5t 5.75-13.5q 4-8.5 8.25-9t 8.25,9q 3,7 7,17t 8.5,21.75t 9.5,24.5t 10,24.75
l 24,60q 3,9 8,13t 16,5q 2,0 2,2l0,5.5 z" horiz-adv-x="425"  />
<glyph unicode="&#x63;&#x69;&#x72;&#x63;&#x6c;&#x65;&#x73;&#x6f;&#x75;&#x6e;&#x64;&#x63;&#x6c;&#x6f;&#x75;&#x64;" d="M 212.5,429q 43.5,0 81.5-16.5t 66.25-44.75t 44.75-66.25t 16.5-81.5t-16.5-81.5t-44.75-66.5t-66.25-45t-81.5-16.5t-81.5,16.5t-66.5,45t-45,66.5t-16.5,81.5t 16.5,81.5t 45,66.25t 66.5,44.75t 81.5,16.5zM 93,216q-10.5-9 -10.5-22q0-13.5 10.5-21.5l0,43.5 zM 114.5,222.5l-2.5,0 q-2.5,0 -4.25-0.25t-4.25-0.75l0-55 
q 2.5-0.5 4.25-0.75t 4.25-0.25l 2.5,0 l0,57 zM 136.5,237.5q-6.5-8 -9-19.5q-0.5,0.5 -1,0.75t-1,0.75l0-54 l 11,0 l0,72 zM 158,253q-3-1 -5.75-2.5t-5.25-3l0-82 l 11,0 l0,87.5 zM 180,254.5q-2,0.5 -3.5,0.75t-3.5,0.25q-1,0 -2-0.25t-2-0.25l0-89.5 l 11,0 l0,89 zM 201.5,255.5q-1-2 -2.5-3.5t-2.5-3q-5.5,3 -11,4.5l0-88 l 16,0 l0,90 zM 310.5,165.5
q 16,1 23.75,10t 7.75,21.5q0,13 -8.75,22t-22.25,9q-5.5,0 -12-2.5q-2.5,20.5 -18,34.75t-37,14.25q-11,0 -20.25-3.75t-16.75-10.25l0-95 l 103.5,0 z" horiz-adv-x="425"  />
<glyph unicode="&#x63;&#x69;&#x72;&#x63;&#x6c;&#x65;&#x73;&#x6c;&#x69;&#x64;&#x65;&#x73;&#x68;&#x61;&#x72;&#x65;" d="M 212.5,429q 43.5,0 81.5-16.5t 66.25-44.75t 44.75-66.25t 16.5-81.5t-16.5-81.5t-44.75-66.5t-66.25-45t-81.5-16.5t-81.5,16.5t-66.5,45t-45,66.5t-16.5,81.5t 16.5,81.5t 45,66.25t 66.5,44.75t 81.5,16.5zM 252,298.5q-11.5,0 -19.75-8.5t-8.25-21q0-12 8.25-20.5t 19.75-8.5t 19.75,8.5t 8.25,20.5q0,12.5 -8.25,21
t-19.75,8.5zM 175.5,298.5q-11.5,0 -19.75-8.5t-8.25-21q0-12 8.25-20.5t 19.75-8.5t 19.75,8.5t 8.25,20.5q0,12.5 -8.25,21t-19.75,8.5zM 339,236.5q 4,8 3.75,11t-0.75,4q0,1 -1.5,1q-3.5,0 -8.5-5.5q-3-4 -10.75-8t-16.25-7.25t-16-5.5t-9.5-2.25l-41.5,0 q-7.5,0 -15.5-2t-8-6l0-7 q-1.5,1 -3,2.5
q-4.5,4.5 -10,7.75t-14,3.25l-1.5,0 l-4,0 q-11,0 -27,1.5t-27,4q-6,1.5 -13.25,5.75t-14.25,8.75q-6,3.5 -10.75,6.25t-7.25,2.75q-0.5,0 -0.5-0.5q-1.5-4 0.5-7.75t 7.5-10.75l 2.5-2.5q 3-4 10.75-8.75t 15.5-8.75t 14-6.5l 6.25-2.5l 0.5-0.5l0-47 q0-5 4.5-11t 10.75-11t 13.25-8.25t 12-3.25q 10,0 17,5.5t 7,10.5l0,45 l 1.5-1
q 3.5-2.5 9-3l0-41 q0-2.5 1.75-6.25t 6-7.5t 11.5-6.5t 17.75-2.75t 17.5,5.5t 11,12.75t 5.5,13.75t 1.5,8.5l0,43.5 l 0.5,0.5q 3.5,2 6.75,3.5t 6.75,3q 11.5,5.5 21.75,12t 16.25,18z" horiz-adv-x="425"  />
<glyph unicode="&#x72;&#x6f;&#x75;&#x6e;&#x64;&#x65;&#x64;&#x67;&#x69;&#x74;&#x68;&#x75;&#x62;&#x61;&#x6c;&#x74;" d="M 317,432q 21.5,0 40.5-8.25t 33.25-22.5t 22.5-33.25t 8.25-40.5l0-209 q0-21.5 -8.25-40.75t-22.5-33.5t-33.25-22.5t-40.5-8.25l-209.5,0 q-21.5,0 -40.5,8.25t-33.25,22.5t-22.5,33.5t-8.25,40.75l0,209 q0,21.5 8.25,40.5t 22.5,33.25t 33.25,22.5t 40.5,8.25l 209.5,0 zM 347,155.5q 10.5,21.5 10.5,57.5q0,41 -23.5,69q 4.5,14 4.5,29q0,20 -9,38
q-19,0 -32.5-6.5q-15-7 -32.5-21q-11.5,2.5 -23.5,4t-25,1.5q-28,0 -53.5-6q-19,14 -33,21q-13.5,7 -33,7q-9-18 -9-38q0-7.5 1.25-14.75t 3.75-14.25q-23.5-27 -23.5-69q0-36 10.5-57.5q 8.5-17.5 25-27.75t 34.5-14.75q 13-4 26.5-5.5q 7.5-1 14-1.5t 12-0.5q 5.5-0.5 11.5-0.5l 13,0 l 15,0 t 14,0.5
q 6.5,0.5 13.75,1.5t 15.75,2.5q 17.5,3 29.5,8q 13,5.5 24.5,15.25t 18.5,22.75zM 274,234.5q 21,0 32.5-14.5q 12-14.5 12-35.5q0-15 -5.5-26.25t-14-18.25q-9-6.5 -21-10q-13-4 -24.5-5.25t-26-1.25l-29,0 q-14.5,0 -25.75,1.25t-24.25,5.25q-12,3.5 -21,10q-8.5,7 -14.25,18.25t-5.75,26.25q0,21 12,35.5q 11.5,14.5 32.5,14.5
q 4,0 12.5-0.75t 21.5-2.75q 6-1 12.75-1.5t 14.25-0.5t 14.25,0.5t 13.25,1.5q 13,2 21.5,2.75t 12,0.75zM 170,157.5q 8,9 9.25,20t-1.75,21.5q-2,7 -7.25,13t-12.75,6t-12.5-6q-8-9 -9.25-20t 1.75-21.5q 2.5-7 7.75-13t 12.25-6t 12.5,6zM 281,157.5q 8,9 9.25,20t-1.75,21.5q-2,7 -7.25,13t-12.75,6
t-12.5-6q-8-9 -9.25-20t 1.75-21.5q 2.5-7 7.75-13t 12.25-6t 12.5,6z" horiz-adv-x="425"  />
<glyph unicode="&#x63;&#x69;&#x72;&#x63;&#x6c;&#x65;&#x67;&#x6f;&#x6f;&#x67;&#x6c;&#x65;&#x74;&#x61;&#x6c;&#x6b;" d="M 212,430q 43.5,0 81.5-16.5t 66.5-44.75t 45-66.25t 16.5-81.5t-16.5-81.5t-45-66.5t-66.5-45t-81.5-16.5t-81.5,16.5t-66.25,45t-44.75,66.5t-16.5,81.5t 16.5,81.5t 44.75,66.25t 66.25,44.75t 81.5,16.5zM 198,314.5q 19-2.5 35.5-9.5t 28.5-17.75t 18.75-24.5t 6.75-28.75q0-19 -10.25-35t-27.75-27.5q 25.5,9.5 40.75,27.25
t 15.25,39.75q0,15.5 -8.25,29.5t-22.25,24.25t-33.25,16.25t-40.75,6l-3,0 zM 271.5,161q 32,11.5 51.75,33.75t 19.75,49.75q0,19.5 -10.25,36.5t-28,29.75t-41.75,20.25t-51,7.5t-50.75-8t-41.5-21.25t-28-31t-10.25-37.25q0-17 8-32t 20.75-27t 28.75-20.5t 31.5-12q-3.5-10.5 -11.75-23.5t-22.25-22q 22.5-2.5 43,2
q 17.5,3.5 36.25,14.75t 30.75,34.75q-7-9 -18-17q-9.5-7 -24-13t-35-8q 6,8 10.5,15.5t 7.5,13q 3.5,6.5 6.5,12.5q-15,3.5 -28.75,9t-25.75,13.25t-21,17t-14,20.25l-2,10t-1,10.5q0,18.5 8.25,34.5t 22.75,27.75t 35,18.25t 44.5,6.5t 44.5-6.25t 35.5-17.5t 23.25-26.75t 8.25-34.5q0-25.5 -12.75-46.5t-39.25-33z" horiz-adv-x="425"  />
<glyph unicode="&#x63;&#x69;&#x72;&#x63;&#x6c;&#x65;&#x67;&#x6f;&#x6f;&#x67;&#x6c;&#x65;&#x62;&#x75;&#x7a;&#x7a;" d="M 212,429q 43.5,0 81.5-16.5t 66.5-44.75t 45-66.25t 16.5-81.5t-16.5-81.5t-45-66.5t-66.5-45t-81.5-16.5t-81.5,16.5t-66.25,45t-44.75,66.5t-16.5,81.5t 16.5,81.5t 44.75,66.25t 66.25,44.75t 81.5,16.5zM 212,324.5q-31,0 -57.75-12t-42.75-33l 67-64l 100.5,92.5q-14.5,8 -31.75,12.25t-35.25,4.25zM 104,267.5
q-9.5-16 -9.5-36q0-18 8.25-34.25t 23.75-29.25l 42,38.5zM 212,138.5q 22.5,0 42.5,6.25t 36,17.75l-73.5,70l-82.5-76l-0.5-1q-3-7 -7.75-14t-11.25-11.5q 2.5-0.5 6.75-1t 9.75-0.5q 24,0 43,13l 3,1.5l 2-0.5q 8.5-2 16.25-3t 16.25-1zM 301.5,171q 28.5,26 28.5,60.5q0,20 -10.25,38t-28.75,31l-64-59z
" horiz-adv-x="425"  />
<glyph unicode="&#x63;&#x69;&#x72;&#x63;&#x6c;&#x65;&#x66;&#x72;&#x69;&#x65;&#x6e;&#x64;&#x73;&#x74;&#x61;&#x72;" d="M 212,429q 43.5,0 81.5-16.5t 66.5-44.75t 45-66.25t 16.5-81.5t-16.5-81.5t-45-66.5t-66.5-45t-81.5-16.5t-81.5,16.5t-66.25,45t-44.75,66.5t-16.5,81.5t 16.5,81.5t 44.75,66.25t 66.25,44.75t 81.5,16.5zM 242,252.5q-0.5-8.5 1.25-20.5t 6.75-17q 2.5-2.5 5.5-2.5q 18,0 18,28.5q0,6.5 -1.75,12.5t-4.25,11t-6,8t-7,3l-1.5,0 
q-9.5-1.5 -11-23zM 198,246.5q-2.5-8 -1.25-17t 5.75-15q 1.5-2.5 4-4.75t 6.5-2.75l 2,0 q 8.5,0 12.5,8t 4.5,18q0,7.5 -3,14.25t-7,10.75t-8,4q-3.5,0 -8-2t-8-13.5zM 328.5,209.5q 2.5,14 1,25t-6,16q-4,4.5 -9.5,4.5l-1,0 q-11.5-1 -15-9.25t-6.5-24.25q-1.5-7.5 -4.5-18.75t-9.75-21.5t-18-17.25t-28.25-6
q-18.5,1 -27.5,6.5t-13.25,13t-5.5,16t-4.25,16q-1,2.5 -1.5,4.5t-1.5,4q-2.5,6 -7,12.75t-11,12.75t-14.5,10t-17.5,4l-33,0 l0-24.5 l 24,0 q 5.5,0 13.5-7.25t 11-19.75q 8.5-38.5 29.25-58t 52.25-19.5l 2.5,0 q 25,0.5 43.5,9.75t 30.75,22t 19,26.5t 8.25,22.75z" horiz-adv-x="425"  />
<glyph unicode="&#x63;&#x69;&#x72;&#x63;&#x6c;&#x65;&#x66;&#x6f;&#x75;&#x72;&#x73;&#x71;&#x75;&#x61;&#x72;&#x65;" d="M 211.5,178l 103,112l0-44.5 l-103-94.5l-46,49l-4-1.5q-7-3 -13-3q-16.5,0 -28.25,12.5t-11.75,30t 11.75,29.75t 28.25,12.25q 8,0 15.25-3.25t 12.5-9t 8.5-13.5t 3.25-16.25q0-8 -3-15.5l-1-3zM 212,429.5q 43.5,0 81.5-16.5t 66.5-44.75t 45-66.25t 16.5-81.5t-16.5-81.5t-45-66.5t-66.5-45t-81.5-16.5
t-81.5,16.5t-66.25,45t-44.75,66.5t-16.5,81.5t 16.5,81.5t 44.75,66.25t 66.25,44.75t 81.5,16.5zM 330,328l-9-9.5l-76.5-82l-32,33.5l-13.5-14q-5.5,17 -19.25,27.75t-31.25,10.75q-11.5,0 -21.25-4.5t-17-12.25t-11.5-18t-4.25-21.75t 4.25-21.75t 11.25-18t 16.75-12.5t 20.75-4.75l 65-68.5l 75,79l-8,8
l 50.5,40l0,10.5 l0,66.5 l0,8 l0,3.5 z" horiz-adv-x="425"  />
<glyph unicode="&#x72;&#x6f;&#x75;&#x6e;&#x64;&#x65;&#x64;&#x70;&#x6f;&#x73;&#x74;&#x65;&#x72;&#x6f;&#x75;&#x73;" d="M 223.5,327q 26,0 42.25-20.25t 16.25-52.25q0-34.5 -16.25-54.75t-43.25-20.25q-19,0 -33.75,11.5t-19.75,30.5q-1.5,6 -1.5,14.5l0,33 q0,6 2,14q 5,19.5 20,31.75t 34,12.25zM 317,429q 21.5,0 40.5-8.25t 33.25-22.5t 22.5-33.25t 8.25-40.5l0-209 q0-21.5 -8.25-40.75t-22.5-33.5t-33.25-22.5t-40.5-8.25l-209.5,0 
q-21.5,0 -40.5,8.25t-33.25,22.5t-22.5,33.5t-8.25,40.75l0,209 q0,21.5 8.25,40.5t 22.5,33.25t 33.25,22.5t 40.5,8.25l 209.5,0 zM 228.5,156q 15.5,0 30.75,6t 27.25,18.25t 19.5,31.25t 7.5,45q0,21 -5.75,38.25t-16.25,29.5t-25,19.25t-32,7q-45,0 -66-35.5l-1.5-1l-2.5,0 l-2,32.5l-27,0 q 0.5-13.5 1-28t 0.5-32l0-197.5 l 30.5,0 l0,95 l 0.5,2l 3,0 l 0.5-1
q 8.5-13.5 23.5-21.25t 33.5-7.75z" horiz-adv-x="425"  />
<glyph unicode="&#x63;&#x69;&#x72;&#x63;&#x6c;&#x65;&#x66;&#x65;&#x65;&#x64;&#x62;&#x75;&#x72;&#x6e;&#x65;&#x72;" d="M 212.5,430.5q 43.5,0 81.75-16.5t 66.75-45t 45-66.75t 16.5-81.75t-16.5-81.75t-45-66.75t-66.75-45t-81.75-16.5t-81.75,16.5t-66.75,45t-45,66.75t-16.5,81.75t 16.5,81.75t 45,66.75t 66.75,45t 81.75,16.5zM 192,349.5q-12-8.5 -23.5-24t-20.5-34.25t-14.5-38.75t-5.5-37.5q0-25 6-44.75
t 16.75-33.75t 25.25-21.75t 31.5-7.75q 16.5,0 32.25,7.25t 28,19.25t 19.75,27t 7.5,31q0,18 -4.5,31.25t-12,22.75t-17,16.5t-19.5,13q 3-16 0-28.5t-10-20.5t-17.25-11t-22.25,0.5q 11.5,19.5 14.5,33t 1.25,23.75t-6.5,18.25t-8.75,16.5t-5.25,18.5t 4.25,24zM 212.5,92q 24.5,0 46,4t 37.5,11t 25.25,16.25t 9.25,19.75q0,9.5 -7,17.5
t-19.5,15q-4.5-14 -14.25-26.75t-22.5-22t-28-14.75t-31.25-5.5q-30,0 -52.5,18.5t-32.5,51.5q-13.5-7 -21-15.25t-7.5-18.25q0-10.5 9.25-19.75t 25.25-16.25t 37.5-11t 46-4zM 207.5,123.5q-17,0 -31.25,8.5t-21.5,24.25t-5.5,37.5t 17.75,47.75q-3-15 -0.75-28t 8-22.5t 14-14.75t 16.75-5.25q 19-0.5 30.75,15.75
t 17.25,40.25q 15.5-12 19.75-29.5t-1.75-33.75t-22-28t-41.5-12.25z" horiz-adv-x="425"  />
<glyph unicode="&#x63;&#x69;&#x72;&#x63;&#x6c;&#x65;&#x64;&#x65;&#x76;&#x69;&#x61;&#x6e;&#x74;&#x61;&#x72;&#x74;" d="M 141,186q-2.5,7 -1.5,14q 1,6 5.5,13.5t 16,15l 16-33zM 212.5,429.5q 43.5,0 81.5-16.5t 66.5-45t 45-66.5t 16.5-81.5t-16.5-81.75t-45-66.75t-66.5-45t-81.5-16.5t-81.75,16.5t-66.75,45t-45,66.75t-16.5,81.75t 16.5,81.5t 45,66.5t 66.75,45t 81.75,16.5zM 340.5,216q-12.5,16.5 -34,28q-18.5,10 -48.25,15.5t-73.75-2
l-2,0 l-11.5,23l-33.5-4l 13.5-28q-13.5-5.5 -22.25-12.75t-14-15.25t-7.5-16.25t-2.75-16.25q-1-18.5 7-38l 108.5,31l-29.5,60.5q 20,5.5 37.75,4t 31.25-6q 16-5.5 29-14l-37-10l-10.5,20q-7.5,1 -16,1.25t-17.5-1.25l 25-50.5z" horiz-adv-x="425"  />
<glyph unicode="&#x63;&#x69;&#x72;&#x63;&#x6c;&#x65;&#x64;&#x65;&#x73;&#x69;&#x67;&#x6e;&#x62;&#x75;&#x6d;&#x70;" d="M 212.5,430.5q 43.5,0 81.75-16.5t 66.75-45t 45-66.75t 16.5-81.75t-16.5-81.75t-45-66.75t-66.75-45t-81.75-16.5t-81.75,16.5t-66.75,45t-45,66.75t-16.5,81.75t 16.5,81.75t 45,66.75t 66.75,45t 81.75,16.5zM 173,286.5l 26.5,0 l0-26.5 l 52.5-52.5l-52.5,0 l0-52.5 l 52.5,52.5l0,79 l 26,0 l-52.5,52.5zM 186,220.5l 26.5,0 
l-52.5,52.5l-52.5-52.5l 26,0 l0-118 l 52.5,0 l0,118 zM 225.5,129l-26,0 l0-26.5 l 26,0 l0,26.5 zM 317.5,142l-52.5,52.5l-52.5-52.5l 26,0 l0-39.5 l 52.5,0 l0,39.5 l 26.5,0 z" horiz-adv-x="425"  />
<glyph unicode="&#x72;&#x6f;&#x75;&#x6e;&#x64;&#x65;&#x64;&#x70;&#x69;&#x6e;&#x74;&#x65;&#x72;&#x65;&#x73;&#x74;" d="M 317,429q 21.5,0 40.5-8.25t 33.25-22.5t 22.5-33.25t 8.25-40.5l0-209 q0-21.5 -8.25-40.75t-22.5-33.5t-33.25-22.5t-40.5-8.25l-209.5,0 q-21.5,0 -40.5,8.25t-33.25,22.5t-22.5,33.5t-8.25,40.75l0,209 q0,21.5 8.25,40.5t 22.5,33.25t 33.25,22.5t 40.5,8.25l 209.5,0 zM 278.5,175q 9,7.5 15.25,18t 10.25,23t 5.5,25.25t0,24.75
q-1.5,13 -8,25.25t-17,21.75t-24,16t-28.5,8q-23,2.5 -44.25-3t-37.5-17.25t-26.25-29.25t-10-39.5q0-21 7.5-34t 26.5-20q 6.5,6 6.75,11.25t-2.25,10.5t-6,11t-4,12.75q-2,18.5 7.25,35.25t 24.75,27.25t 35.5,12.5t 40-9.5q 9.5-5.5 15-15.75t 7.75-23t 1-26.5t-6-25.25t-12.75-20t-19-10.5
q-7-1.5 -14.25,0.25t-10.25,4.75q-8,7.5 -6.5,17t 5.5,20.5t 7.25,22.5t-1.25,22q-4,9 -11.25,10.75t-14.25-1.75t-12.75-10.5t-7.25-15q-1-8.5 1.5-16.75t 2.5-16.25q0-9 -2.5-19.25t-5.75-21t-6.5-21t-4.75-19.25q-1-7 -1.75-19t 1.25-19.5l-0.5-0.5l 16.5,0 q 8.5,14.5 14.5,34t 10.5,37.5q 2.5,2.5 3.75-1t 3.75-5
q 7.5-6 18-7.25t 21,0.25t 20.25,5.5t 15.75,9z" horiz-adv-x="425"  />
<glyph unicode="&#x72;&#x6f;&#x75;&#x6e;&#x64;&#x65;&#x64;&#x73;&#x68;&#x61;&#x72;&#x65;&#x74;&#x68;&#x69;&#x73;" d="M 317,429q 21.5,0 40.5-8.25t 33.25-22.5t 22.5-33.25t 8.25-40.5l0-209 q0-21.5 -8.25-40.75t-22.5-33.5t-33.25-22.5t-40.5-8.25l-209.5,0 q-21.5,0 -40.5,8.25t-33.25,22.5t-22.5,33.5t-8.25,40.75l0,209 q0,21.5 8.25,40.5t 22.5,33.25t 33.25,22.5t 40.5,8.25l 209.5,0 zM 177.5,222.5l 84,42q 5.5-4.5 12.25-7.25t 14.75-2.75q 17.5,0 29.5,12
t 12,29.5t-12,29.5t-29.5,12t-29.5-12t-12-29.5l0-2.5 l-84-42q-5.5,4.5 -12.25,7.25t-14.75,2.75q-17.5,0 -29.5-12t-12-29.5t 12-29.5t 29.5-12q 15.5,0 27,10l 84-42.5l0-2 q0-17.5 12-29.75t 29.5-12.25t 29.5,12.25t 12,29.75q0,17 -12,29.25t-29.5,12.25q-8,0 -14.75-2.75t-12.25-7.25l-84,42l0,2.5 l0,2.5 z" horiz-adv-x="425"  />
<glyph unicode="&#x63;&#x69;&#x72;&#x63;&#x6c;&#x65;&#x70;&#x69;&#x6e;&#x74;&#x65;&#x72;&#x65;&#x73;&#x74;" d="M 212.5,430q 43.5,0 81.5-16.5t 66.25-44.75t 44.75-66.25t 16.5-81.5t-16.5-81.5t-44.75-66.5t-66.25-45t-81.5-16.5t-81.5,16.5t-66.5,45t-45,66.5t-16.5,81.5t 16.5,81.5t 45,66.25t 66.5,44.75t 81.5,16.5zM 278.5,176q 9,7.5 15.25,18t 10.25,23t 5.5,25.25t0,24.75q-1.5,13 -8,25.25t-17,21.75t-24,16t-28.5,8
q-23,2.5 -44.25-3t-37.5-17.25t-26.25-29.25t-10-39.5q0-21 7.5-34t 26.5-20q 6.5,6 6.75,11.25t-2.25,10.5t-6,11t-4,12.75q-2,18.5 7.25,35.25t 24.75,27.25t 35.5,12.5t 40-9.5q 9.5-5.5 15-15.75t 7.75-23t 1-26.5t-6-25.25t-12.75-20t-19-10.5q-7-1.5 -14.25,0.25t-10.25,4.75q-8,7.5 -6.5,17t 5.5,20.5
t 7.25,22.5t-1.25,22q-4,9 -11.25,10.75t-14.25-1.75t-12.75-10.5t-7.25-15q-1-8.5 1.5-16.75t 2.5-16.25q0-9 -2.5-19.25t-5.75-21t-6.5-21t-4.75-19.25q-1-7 -1.75-19t 1.25-19.5l-0.5-0.5l 16.5,0 q 8.5,14.5 14.5,34t 10.5,37.5q 2.5,2.5 3.75-1t 3.75-5q 7.5-6 18-7.25t 21,0.25t 20.25,5.5t 15.75,9z" horiz-adv-x="425"  />
<glyph unicode="&#x63;&#x69;&#x72;&#x63;&#x6c;&#x65;&#x69;&#x6e;&#x73;&#x74;&#x61;&#x67;&#x72;&#x61;&#x6d;" d="M 210,173.5q-9.5,0 -17.75,3.5t-14.5,9.75t-9.75,14.75t-3.5,18t 3.5,17.75t 9.75,14.5t 14.5,9.75t 17.75,3.5q 19,0 32.25-13.25t 13.25-32.25q0-9.5 -3.5-18t-9.75-14.75t-14.5-9.75t-17.75-3.5zM 283,219.5q0,4.5 -0.5,9.25t-1.5,8.75l 20.5,0 l0-100.5 q0-4 -2.5-6.5t-6.5-2.5l-165,0 q-4,0 -6.5,2.5t-2.5,6.5l0,100.5 l 20.5,0 q-1-4 -1.5-8.75
t-0.5-9.25q0-15 5.75-28.5t 15.5-23.5t 23.25-15.75t 28.5-5.75t 28.5,5.75t 23.25,15.75t 15.5,23.5t 5.75,28.5zM 212,429q 43.5,0 81.5-16.5t 66.5-44.75t 45-66.25t 16.5-81.5t-16.5-81.5t-45-66.5t-66.5-45t-81.5-16.5t-81.5,16.5t-66.25,45t-44.75,66.5t-16.5,81.5t 16.5,81.5t 44.75,66.25t 66.25,44.75t 81.5,16.5zM 329,311
q0,11.5 -8,19.5t-19.5,8l-183,0 q-11.5,0 -19.5-8t-8-19.5l0-183 q0-11.5 8-19.5t 19.5-8l 183,0 q 11.5,0 19.5,8t 8,19.5l0,183 zM 292.5,311q 4,0 6.5-2.75t 2.5-6.75l0-27.5 q0-4 -2.5-6.5t-6.5-2.5l-27.5,0 q-4,0 -6.75,2.5t-2.75,6.5l0,27.5 q0,4 2.75,6.75t 6.75,2.75l 27.5,0 z" horiz-adv-x="425"  />
<glyph unicode="&#x63;&#x69;&#x72;&#x63;&#x6c;&#x65;&#x67;&#x69;&#x74;&#x68;&#x75;&#x62;&#x61;&#x6c;&#x74;" d="M 274.5,227q 20.5,0 32.5-14.5q 12-15 12-35.5q0-15.5 -5.75-26.5t-14.25-18t-21-10.5q-13-4 -24.25-5t-25.75-1l-29.5,0 q-14,0 -25.5,1t-24.5,5q-13,3.5 -21,10.5q-8.5,7 -14,18t-5.5,26.5q0,20.5 12,35.5q 12,14.5 32.5,14.5q 4,0 12.25-1t 21.25-2.5q 6-1 13-1.5t 14.5-0.5q 7,0 14,0.5t 13,1.5q 13.5,1.5 21.75,2.5t 12.25,1z
M 170.5,149.5q 8,9.5 9.25,20.5t-1.75,21q-2.5,7.5 -7.75,13.5t-12.25,6t-13-6q-7.5-9.5 -8.75-20.5t 1.25-21q 2.5-7.5 7.75-13.5t 12.75-6q 7,0 12.5,6zM 281.5,149.5q 8,9.5 9.25,20.5t-2.25,21q-2,7.5 -7.25,13.5t-12.25,6t-13-6q-7.5-9.5 -8.75-20.5t 1.25-21q 2.5-7.5 7.75-13.5t 12.75-6q 7,0 12.5,6z
M 212.5,430q 43.5,0 81.5-16.5t 66.5-44.75t 45-66.5t 16.5-81.75t-16.5-81.5t-45-66.5t-66.5-45t-81.5-16.5t-81.5,16.5t-66.5,45t-45,66.5t-16.5,81.5t 16.5,81.75t 45,66.5t 66.5,44.75t 81.5,16.5zM 347,150q 10.5,21.5 10.5,57.5q0,42 -23.5,69q 4.5,14 4.5,29q0,19.5 -8.5,38q-18,0 -33-7q-7-3.5 -15-8.75t-17.5-12.25
q-22.5,6 -48.5,6q-14,0 -27.25-1.75t-26.25-4.75q-19,15 -33,21.5q-15,7 -32.5,7q-9-18 -9-38q0-15.5 4.5-29.5q-23.5-27.5 -23.5-68.5q0-36 11-57.5q 8-17.5 24.75-27.75t 34.75-14.75q 13-4 26.5-5.5q 7-1 13.5-1.5t 12-0.5q 5.5-0.5 11.5-0.5l 13,0 l 15.25,0 t 13.75,0.5t 13.75,1.5t 15.75,2.5q 17.5,3 29.5,8
q 13,5.5 24.5,15.25t 18.5,22.75z" horiz-adv-x="425"  />
<glyph unicode="&#x63;&#x69;&#x72;&#x63;&#x6c;&#x65;&#x79;&#x61;&#x68;&#x6f;&#x6f;&#x62;&#x75;&#x7a;&#x7a;" d="M 212.5,429q 43.5,0 81.5-16.5t 66.25-44.75t 44.75-66.25t 16.5-81.5t-16.5-81.5t-44.75-66.5t-66.25-45t-81.5-16.5t-81.5,16.5t-66.5,45t-45,66.5t-16.5,81.5t 16.5,81.5t 45,66.25t 66.5,44.75t 81.5,16.5zM 225.5,102q 16,0 30.25,6.25t 25,17t 17,25t 6.25,30.25q0,16.5 -6.25,30.75t-17,24.75t-25,16.75t-30.25,6.25l-26.5,0 
l0-39 l 26.5,0 q 16,0 27.5-11.5t 11.5-28q0-16 -11.5-27.5t-27.5-11.5q-16.5,0 -28,11.5t-11.5,27.5l0,39.5 l0,117.5 l-39,0 l0-157 q0-16 6.25-30.25t 16.75-25t 24.75-17t 30.75-6.25z" horiz-adv-x="425"  />
<glyph unicode="&#x63;&#x69;&#x72;&#x63;&#x6c;&#x65;&#x77;&#x6f;&#x72;&#x64;&#x70;&#x72;&#x65;&#x73;&#x73;" d="M 212.5,429q 43.5,0 81.5-16.5t 66.25-44.75t 44.75-66.25t 16.5-81.5t-16.5-81.5t-44.75-66.5t-66.25-45t-81.5-16.5t-81.5,16.5t-66.5,45t-45,66.5t-16.5,81.5t 16.5,81.5t 45,66.25t 66.5,44.75t 81.5,16.5zM 94.5,233q0-17.5 4.75-33.5t 13.5-29.75t 21-24.75t 27.25-18l-56,154q-5-11.5 -7.75-23.25t-2.75-24.75z
M 212.5,115.5q 21,0 39,6.5q-1,1 -1,1.5l-36,99l-35.5-102.5q 15.5-4.5 33.5-4.5zM 271,161.5l 12,39.5q 8.5,23 8.5,38q0,11 -3,18.75t-6.5,13.75q-4.5,7 -8,13.75t-3.5,13.75q0,8 5.5,14.5t 14,6.5q 0.5,0 0.75-0.25t 0.75-0.25q-15.5,14.5 -35.75,22.75t-43.25,8.25q-31.5,0 -57-14.5t-41.5-38.5l 7.5,0 l 10,0 t 10.5,0.5l 11,1q 2,0 3.5-1.25t 1.5-3
t-1-3.5t-3.5-1.75q-2,0 -4-0.5q-5-1 -9.5-1l 43-127.5l 26,77.5l-18.5,50q-2.5,0 -4.5,0.25t-4,0.75t-4,0.5q-2.5,0 -3.5,1.5t-0.75,3.5t 1.5,3.25t 3.75,1.25l 11-1q 4.5-0.5 10-0.5l 10,0 l 9.75,0 t 10.25,0.5l 11,1q 2.5,0 3.75-1.25t 1.5-3t-0.75-3.5t-3.5-1.75q-2,0 -4-0.5q-5-1 -9.5-1zM 271.5,131.5q 26.5,15 42.5,41.75t 16,59.75
q0,15.5 -3.75,29.5t-10.75,27q 0.5-3 0.75-6t 0.25-6q0-9 -2-19.25t-7-23.25z" horiz-adv-x="425"  />
<glyph unicode="&#x63;&#x69;&#x72;&#x63;&#x6c;&#x65;&#x77;&#x69;&#x6b;&#x69;&#x70;&#x65;&#x64;&#x69;&#x61;" d="M 212.5,429q 43.5,0 81.5-16.5t 66.25-44.75t 44.75-66.25t 16.5-81.5t-16.5-81.5t-44.75-66.5t-66.25-45t-81.5-16.5t-81.5,16.5t-66.5,45t-45,66.5t-16.5,81.5t 16.5,81.5t 45,66.25t 66.5,44.75t 81.5,16.5zM 343,311l-0.5,0.5l-54,0 l-1-0.5l0-5.5 q0-0.5 1-1.5q 0.5-0.5 1.5-0.5l 4.5-0.5q 4,0 5.75-1t 3.25-2.5q 3.5-2.5 1-10.5l-48-125.5
l-1.5,0.5l-30.5,68.5q0,0.5 0.25,0.75t 0.25,0.75l0,0.5 l 25,51q 2.5,4 4.25,7.5t 2.75,5q 2,3.5 3.75,4.25t 7.25,1.25q 2.5,0 2.5,2l0,5.5 l-0.5,0.5l-44,0 l-1-0.5l0-5.5 q0-0.5 1-1.5q 0.5-0.5 1.5-0.5l 2-0.5q 7.5,0 9-2.5q 1-1.5 1.25-3.75t-2.25-7.75l-19.5-42l-17,39q-4,9.5 -4.5,12.75t 6,4.25l 3.5,0.5q 2,0 2,2l0,5.5 l-1,0.5l-46.5,0 l-1-0.5l0-5.5 q0-2 3.5-2
q 3-0.5 4.75-1.25t 3.25-2.5t 3.25-5.5t 4.75-10.25q 0.5-1 1-2.5t 1.5-3.5t 2-4.5l 18-39q 0.5-1.5 1.5-3.5t 1.75-4.25t 2.25-5.25l-26.5-58l-1.5,0.5q-12,27.5 -22,51.5q-4.5,10.5 -8.75,21.25t-8.5,20.75t-7.75,18.5t-5.5,14.5q-1.5,5 -1.5,7.5q0,5 8,5l 6,0.5q 2.5,0 2.5,2l0,5 l-0.5,0.5l-26,0 l-33,0 l-0.5-0.5l0-5.5 q0-1.5 3.5-1.5q 9.5-1 12-3.5
q 2-2 7-13.5q 5.5-15 13.5-34.5t 16.75-40t 17-40.25t 14.25-34.75q 3-8 7-8.75t 9.5,9.25q 2.5,5 6.25,13.25t 8,17.75t 8.5,19.25t 8.25,18.75q 3.5-9 7.5-18.75t 8-19.25t 7.25-17.5t 5.75-13.5q 4-8.5 8.25-9t 8.25,9q 3,7 7,17t 8.5,21.75t 9.5,24.5t 10,24.75l 24,60q 3,9 8,13t 16,5q 2,0 2,2l0,5.5 z
" horiz-adv-x="425"  />
<glyph unicode="&#x72;&#x6f;&#x75;&#x6e;&#x64;&#x65;&#x64;&#x66;&#x61;&#x63;&#x65;&#x62;&#x6f;&#x6f;&#x6b;" d="M 317,429q 21.5,0 40.5-8.25t 33.25-22.5t 22.5-33.25t 8.25-40.5l0-209 q0-21.5 -8.25-40.75t-22.5-33.5t-33.25-22.5t-40.5-8.25l-209.5,0 q-21.5,0 -40.5,8.25t-33.25,22.5t-22.5,33.5t-8.25,40.75l0,209 q0,21.5 8.25,40.5t 22.5,33.25t 33.25,22.5t 40.5,8.25l 209.5,0 zM 290.5,337.5l-44,0 q-13,0 -24-4.5t-19-11.75t-12.75-16.75t-4.75-19
l0-26.5 l-39,0 l0-52 l 39,0 l0-105 l 52.5,0 l0,105 l 39,0 l0,52 l-39,0 l0,13 q0,6.5 4.75,10t 8.25,3.5l 39,0 l0,52 z" horiz-adv-x="425"  />
<glyph unicode="&#x72;&#x6f;&#x75;&#x6e;&#x64;&#x65;&#x64;&#x65;&#x6d;&#x62;&#x65;&#x72;&#x61;&#x70;&#x70;" d="M 305.5,220.5q0-5 -0.75-10.25t-0.75-10.75q0-14.5 -5-28.75t-15-26.75q-11.5-15 -28.5-23t-41.5-9q-28.5,1 -49.25,14.75t-30.75,39.75q0,3.5 -3.75,6.75t-5.25,6.75q 1,1 1.25,1.5t 1.25,1.5l0,0.5 q 2.5,2.5 2.75,6.25t 1.25,9.25q 1,9 3.5,22.75t 12.5,27.25q 8.5,11.5 19.75,21.5t 22.25,19.5q 10.5,8.5 19,16.5t 13.5,15.5
q 9.5-7.5 21.5-18t 22.5-22.5t 18.25-24.5t 9.25-24l 3-24zM 285,156q 7,9 11.25,19.5t 6.75,21l-6.5-8l-3,24q-1.5,11.5 -9.25,24t-18.25,24.5t-22.5,22.25t-21.5,17.75q-5-7.5 -13.5-15.25t-19-16.25q-11-9.5 -22.25-19.75t-19.75-21.75q-10-13 -12.75-26.75t-3.75-22.75q0-2 -0.5-2.5q 27.5-50 81.5-52
q 49.5,1.5 73,32zM 317,429q 21.5,0 40.5-8.25t 33.25-22.5t 22.5-33.25t 8.25-40.5l0-209 q0-21.5 -8.25-40.75t-22.5-33.5t-33.25-22.5t-40.5-8.25l-209.5,0 q-21.5,0 -40.5,8.25t-33.25,22.5t-22.5,33.5t-8.25,40.75l0,209 q0,21.5 8.25,40.5t 22.5,33.25t 33.25,22.5t 40.5,8.25l 209.5,0 zM 212,102q 34.5,1 55.5,13.75t 32,30.75t 14.25,38.5t 3,37.5
t-2.5,27.25t-1.75,7.75q 1-4 -0.25-8t-3.25-7.5q-2-4 -5-8q-2.5,17.5 -16,36t-29.5,33.5q-18.5,17.5 -41,34q-0.5-8 -9.25-17t-20.75-19.25t-25.5-21.75t-23-25q-8-11 -11.5-22.25t-5-20.75t-2-15.75t-2.5-6.75q-3.5-1.5 -7,1q-2,1 -3.5,3q 9-30.5 22.75-48.5t 28.75-27.25t 29.25-12t 23.75-3.25z
" horiz-adv-x="425"  />
<glyph unicode="&#x72;&#x6f;&#x75;&#x6e;&#x64;&#x65;&#x64;&#x63;&#x6f;&#x72;&#x6f;&#x66;&#x6c;&#x6f;&#x74;" d="M 317,429q 21.5,0 40.5-8.25t 33.25-22.5t 22.5-33.25t 8.25-40.5l0-209 q0-21.5 -8.25-40.75t-22.5-33.5t-33.25-22.5t-40.5-8.25l-209.5,0 q-21.5,0 -40.5,8.25t-33.25,22.5t-22.5,33.5t-8.25,40.75l0,209 q0,21.5 8.25,40.5t 22.5,33.25t 33.25,22.5t 40.5,8.25l 209.5,0 zM 112.5,297.5q-1-7.5 9.25-8.5t 25.25,0.5q 7,0.5 13.5-4.5t 11.25-14.5t 7.5-23
t 2.25-30.5q 7,2.5 15.5,3.5q-0.5,4 -1.75,13.75t-4.75,21.25t-10.25,23.25t-17.75,20.25q 6,0.5 14.5-0.75t 18.5-7.25t 21.5-17.5t 24-31q 2.5,1 4.75,1.5t 4.75,1.5q-4.5,7.5 -13.75,19.75t-21.75,23.5t-28.25,17.75t-32.75,2.5q 0.5,6 0,11.75t-2.25,9.75t-5,5.5t-7.75-1q-5-3 -6.5-5.5t-1.25-5.5t 1-6.5t 0.25-8q-0.5-5 -3.5-6
t-6.25-1t-6.5-0.75t-3.75-4.25zM 203,103.5q 10.5,0 20,4t 16.5,11t 11,16.5t 4,20t-4,20t-11,16.5t-16.5,11t-20,4t-20-4t-16.75-11t-11.25-16.5t-4-20t 4-20t 11.25-16.5t 16.75-11t 20-4zM 266.5,139.5q 9.5,0.5 17.75,4.5t 14.5,10.25t 9.75,14.75t 3.5,18q0,20 -14,34t-34,14q-11.5,0 -21.25-5t-16.75-13.5
q 19-7 30.75-23.75t 11.75-37.75q0-9 -2-15.5zM 187.5,186q 4.5,0 7.75-3.25t 3.25-7.75q0-5 -3.25-8.25t-7.75-3.25q-5,0 -8.25,3.25t-3.25,8.25q0,4.5 3.25,7.75t 8.25,3.25z" horiz-adv-x="425"  />
<glyph unicode="&#x72;&#x6f;&#x75;&#x6e;&#x64;&#x65;&#x64;&#x61;&#x70;&#x70;&#x73;&#x74;&#x6f;&#x72;&#x65;" d="M 317,429q 21.5,0 40.5-8.25t 33.25-22.5t 22.5-33.25t 8.25-40.5l0-209 q0-21.5 -8.25-40.75t-22.5-33.5t-33.25-22.5t-40.5-8.25l-209.5,0 q-21.5,0 -40.5,8.25t-33.25,22.5t-22.5,33.5t-8.25,40.75l0,209 q0,21.5 8.25,40.5t 22.5,33.25t 33.25,22.5t 40.5,8.25l 209.5,0 zM 81.5,199q0-5 6-5l 26.5,0 l 33,52l-59.5,0 q-6,0 -6-4.5l0-42.5 z
M 126,132.5q 5.5,3.5 0,6.5l-15.5,9q-5,2.5 -6-3l-2.5-23.5q-0.5-2.5 0.75-3t 3.25,0.5zM 131,146q 5-3.5 8,2l 72,125q 1,2 0.5,4.5t-3,3.5l-15.5,9q-2,1 -4.5,0.5t-3.5-3l-71.5-124.5q-3.5-5 2-8.5zM 250.5,194l-22,52l-15.5,0 l-33.5-52l 71,0 zM 274.5,185.5q 4.5-2.5 7-1.75t 5.5,2.25q 3.5,1 7,5t 1,9.5q-1.5,2.5 -7.5,13.5t-13.5,25.25
t-15.25,28.5t-13.25,23.25q-5.5,8.5 -11.75,19.25t-11.75,20.25t-10,15.25t-6.5,4.75q-3-1.5 -0.75-10.25t 6.75-20.25t 9.75-23t 8.25-18.5t 9.5-22t 13.75-30.25t 13.25-27.5t 8.5-13.25zM 294.5,153q 3.5-5 9.5-2.5l 6,4q 2.5,1 3.25,3.75t-0.75,5.25l-7.5,14q-1,2.5 -3.5,3.25t-5-0.25l-9-4.5q-2.5-1 -3-3.5t 1-5z
M 329,114q 1,13 -1,22q-1.5,7.5 -6.5,11.75t-15-1.25q-1.5-1.5 -3.75-5.5t 2.75-11q 2.5-3.5 6.25-5.5t 7.25-3.5t 6.25-3t 3.75-4zM 343,241.5q0,4.5 -6,4.5l-52.5,0 l 26.5-52l 26,0 q 6,0 6,5l0,42.5 z" horiz-adv-x="425"  />
<glyph unicode="&#x63;&#x69;&#x72;&#x63;&#x6c;&#x65;&#x64;&#x65;&#x6c;&#x69;&#x63;&#x69;&#x6f;&#x75;&#x73;" d="M 212.5,430.5q 43.5,0 81.75-16.5t 66.5-45t 44.75-66.75t 16.5-81.75t-16.5-81.75t-44.75-66.75t-66.5-45t-81.75-16.5t-81.75,16.5t-66.75,45t-45,66.75t-16.5,81.75t 16.5,81.75t 45,66.75t 66.75,45t 81.75,16.5zM 317.5,325.5l-105,0 l0-105 l-105,0 l0-105 l 105,0 l0,105 l 105,0 l0,105 z" horiz-adv-x="425"  />
<glyph unicode="&#x63;&#x69;&#x72;&#x63;&#x6c;&#x65;&#x73;&#x68;&#x61;&#x72;&#x65;&#x74;&#x68;&#x69;&#x73;" d="M 212.5,429q 43.5,0 81.5-16.5t 66.25-44.75t 44.75-66.25t 16.5-81.5t-16.5-81.5t-44.75-66.5t-66.25-45t-81.5-16.5t-81.5,16.5t-66.5,45t-45,66.5t-16.5,81.5t 16.5,81.5t 45,66.25t 66.5,44.75t 81.5,16.5zM 177.5,222.5l 84,42q 5.5-4.5 12.25-7.25t 14.75-2.75q 17.5,0 29.5,12t 12,29.5t-12,29.5t-29.5,12t-29.5-12t-12-29.5l0-2.5 
l-84-42q-5.5,4.5 -12.25,7.25t-14.75,2.75q-17.5,0 -29.5-12t-12-29.5t 12-29.5t 29.5-12q 15.5,0 27,10l 84-42.5l0-2 q0-17.5 12-29.75t 29.5-12.25t 29.5,12.25t 12,29.75q0,17 -12,29.25t-29.5,12.25q-8,0 -14.75-2.75t-12.25-7.25l-84,42l0,2.5 l0,2.5 z" horiz-adv-x="425"  />
<glyph unicode="&#x72;&#x6f;&#x75;&#x6e;&#x64;&#x65;&#x64;&#x73;&#x6c;&#x61;&#x73;&#x68;&#x64;&#x6f;&#x74;" d="M 317,429q 21.5,0 40.5-8.25t 33.25-22.5t 22.5-33.25t 8.25-40.5l0-209 q0-21.5 -8.25-40.75t-22.5-33.5t-33.25-22.5t-40.5-8.25l-209.5,0 q-21.5,0 -40.5,8.25t-33.25,22.5t-22.5,33.5t-8.25,40.75l0,209 q0,21.5 8.25,40.5t 22.5,33.25t 33.25,22.5t 40.5,8.25l 209.5,0 zM 173,115.5l 91.5,209l-52,0 l-91.5-209l 52,0 zM 271,115.5q 13.5,0 23.25,9.5
t 9.75,23t-9.75,23t-23.25,9.5t-23-9.5t-9.5-23t 9.5-23t 23-9.5z" horiz-adv-x="425"  />
<glyph unicode="&#x63;&#x69;&#x72;&#x63;&#x6c;&#x65;&#x70;&#x6f;&#x73;&#x74;&#x65;&#x72;&#x6f;&#x75;&#x73;" d="M 212.5,430q 43.5,0 81.5-16.5t 66.25-44.75t 44.75-66.25t 16.5-81.5t-16.5-81.5t-44.75-66.5t-66.25-45t-81.5-16.5t-81.5,16.5t-66.5,45t-45,66.5t-16.5,81.5t 16.5,81.5t 45,66.25t 66.5,44.75t 81.5,16.5zM 228.5,157q 15.5,0 30.75,6t 27.25,18.25t 19.5,31.25t 7.5,45q0,21 -5.75,38.25t-16.25,29.5t-25,19.25t-32,7
q-45,0 -66-35.5l-1.5-1l-2.5,0 l-2,32.5l-27,0 q 0.5-13.5 1-28t 0.5-32l0-197.5 l 30.5,0 l0,95 l 0.5,2l 3,0 l 0.5-1q 8.5-13.5 23.5-21.25t 33.5-7.75zM 223.5,328q 26,0 42.25-20.25t 16.25-52.25q0-34.5 -16.25-54.75t-43.25-20.25q-19,0 -33.75,11.5t-19.75,30.5q-1.5,6 -1.5,14.5l0,33 q0,6 2,14q 5,19.5 20,31.75t 34,12.25z" horiz-adv-x="425"  />
<glyph unicode="&#x72;&#x6f;&#x75;&#x6e;&#x64;&#x65;&#x64;&#x69;&#x63;&#x6f;&#x6e;&#x64;&#x6f;&#x63;&#x6b;" d="M 317,429q 21.5,0 40.5-8.25t 33.25-22.5t 22.5-33.25t 8.25-40.5l0-209 q0-21.5 -8.25-40.75t-22.5-33.5t-33.25-22.5t-40.5-8.25l-209.5,0 q-21.5,0 -40.5,8.25t-33.25,22.5t-22.5,33.5t-8.25,40.75l0,209 q0,21.5 8.25,40.5t 22.5,33.25t 33.25,22.5t 40.5,8.25l 209.5,0 zM 330,220.5q0,7 -3.5,10.5q-3.5,4 -10,4l-1.5,0 l-39-3.5q-8-1 -9.5-5
q-0.5-1 -0.25-2.5t 2.75-3.5q 7-7 13.5-9l 3.5-1.5l-2-3q-1.5-2 -6.5-6.5l-31-26q-1-1 -3-2.25t-4-1.25q-5.5,0 -5.5,8.5l0,74.5 l 1.5,0.5q 10.5,6.5 16.75,16.5t 6.25,22q0,9 -3.75,17.25t-10,14.25t-14.5,9.5t-17.75,3.5t-18-3.5t-14.75-9.5t-10-14.25t-3.75-17.25q0-12.5 6.75-23t 18.25-16.5l 1.5-0.5l0-75 
q0-8.5 -5.5-8.5q-4,0 -7,3l-33,28q-5,4.5 -6.5,6.5l-2,3l 3.5,1.5q 6.5,2 13.5,9q 2.5,2 2.75,3.5t-0.25,2.5q-1.5,4 -9.5,5l-39,3.5l-1.5,0 q-6.5,0 -10-4q-4.5-4.5 -3.5-10.5l 4-37.5q 1.5-9 6.5-9q 1,0 2.25,0.25t 2.75,2.25q 3.5,3 6,6.75t 3.5,6.25l 1,3.5l 3.5-2q 1.5-1 7-6.5l 70-77q 4.5-5.5 11.5-5.5q 6.5,0 11,5.5l 70,77
q 5.5,5.5 7,6.5l 3.5,2l 1-3.5q 1-2.5 3.5-6.25t 6-6.75q 1.5-2 2.75-2.25t 2.25-0.25q 5,0 6.5,9zM 212.5,320q 11.5,0 19.5-8t 8-19q0-11.5 -8-19.25t-19.5-7.75t-19.75,7.75t-8.25,19.25q0,11 8.25,19t 19.75,8z" horiz-adv-x="425"  />
<glyph unicode="&#x72;&#x6f;&#x75;&#x6e;&#x64;&#x65;&#x64;&#x69;&#x64;&#x65;&#x6e;&#x74;&#x69;&#x63;&#x61;" d="M 234,225.5q-6-5 -9-10q-6.5-5.5 -14.75-9t-17.75-3.5q-12,0 -23,5.5l-35.5-14.5l 11,42.5q-3.5,9.5 -3.5,18.5q0,11 4,20.5t 11,16.5t 16.25,11t 19.75,4t 19.75-4t 16-11t 10.75-16.5t 4-20.5q0-17 -9-29.5zM 317,429q 21.5,0 40.5-8.25t 33.25-22.5t 22.5-33.25t 8.25-40.5l0-209 q0-21.5 -8.25-40.75t-22.5-33.5
t-33.25-22.5t-40.5-8.25l-209.5,0 q-21.5,0 -40.5,8.25t-33.25,22.5t-22.5,33.5t-8.25,40.75l0,209 q0,21.5 8.25,40.5t 22.5,33.25t 33.25,22.5t 40.5,8.25l 209.5,0 zM 289.5,140.5q 12.5,6.5 20,18.75t 7.5,26.75q0,11 -4,20.5t-10.75,16.5t-16,11t-19.75,4q-0.5,0 -1-0.25t-1-0.25q 2.5,10 2.5,19q0,16 -6,30.25t-16.25,24.75t-24,16.5t-29.25,6
q-16,0 -29.75-6t-23.75-16.5t-16-24.75t-6-30.25q0-17 6-31l-14.5-57.5l 53.5,17.5q 7-3 14.5-4.75t 16-1.75q 13,0 25,4.5q 1-17.5 12-30.75t 27-16.75l 23-30zM 266.5,214q 11,0 18.5-7.75t 7.5-19.25q0-8 -3.75-14t-9.75-9.5l-7-20l-10,17q-9.5,2 -15.5,9.25t-6,17.25q0,7.5 4,14.5l 3,3t 2.5,3.5
q 7.5,6 16.5,6z" horiz-adv-x="425"  />
<glyph unicode="&#x72;&#x6f;&#x75;&#x6e;&#x64;&#x65;&#x64;&#x6e;&#x65;&#x77;&#x73;&#x76;&#x69;&#x6e;&#x65;" d="M 317,429q 21.5,0 40.5-8.25t 33.25-22.5t 22.5-33.25t 8.25-40.5l0-209 q0-21.5 -8.25-40.75t-22.5-33.5t-33.25-22.5t-40.5-8.25l-209.5,0 q-21.5,0 -40.5,8.25t-33.25,22.5t-22.5,33.5t-8.25,40.75l0,209 q0,21.5 8.25,40.5t 22.5,33.25t 33.25,22.5t 40.5,8.25l 209.5,0 zM 225.5,201.5l0,51.5 l 30.5,22.5q 5-2.5 9.5-2.5q 7.5,0 12.75,5.5t 5.25,13
t-5.25,13t-13.25,5.5q-7.5,0 -13-5.5t-5.5-13q0-1 0.5-1.25t 0.5-1.25l-22-16.5l0,78 l-26.5,0 l0-41 l-22,16.5q0,1 0.25,1.75t 0.25,1.75q0,7.5 -5.25,13t-13.25,5.5q-7.5,0 -13-5.5t-5.5-13q0-8 5.5-13.25t 13-5.25q 5,0 8.5,2l 31.5-23l0-51.5 l-22,16.5q0,1 0.25,1.5t 0.25,1.5q0,7.5 -5.25,13t-13.25,5.5
q-7.5,0 -13-5.5t-5.5-13t 5.5-13t 13-5.5q 4.5,0 8.5,2.5l 31.5-23.5l0-54.5 l-22,16.5q0,1 0.25,1.5t 0.25,1.5q0,7.5 -5.25,13t-13.25,5.5q-7.5,0 -13-5.5t-5.5-13q0-8 5.5-13.25t 13-5.25q 4,0 9,2.5l 31-23.5l0-55 l 26.5,0 l0,18.5 l 30.5,22.5q 3.5-3 9.5-3q 7.5,0 12.75,5.5t 5.25,13q0,8 -5.25,13.25t-13.25,5.25
q-7.5,0 -13-5.25t-5.5-13.25q0-0.5 0.5-1t 0.5-1l-22-16.5l0,55 l 30.5,22.5q 4.5-3 9.5-3q 7.5,0 12.75,5.5t 5.25,13q0,8 -5.25,13.25t-13.25,5.25q-7.5,0 -13-5.25t-5.5-13.25q0-0.5 0.5-1t 0.5-1z" horiz-adv-x="425"  />
<glyph unicode="&#x72;&#x6f;&#x75;&#x6e;&#x64;&#x65;&#x64;&#x69;&#x6d;&#x65;&#x73;&#x73;&#x61;&#x67;&#x65;" d="M 317,429q 21.5,0 40.5-8.25t 33.25-22.5t 22.5-33.25t 8.25-40.5l0-209 q0-21.5 -8.25-40.75t-22.5-33.5t-33.25-22.5t-40.5-8.25l-209.5,0 q-21.5,0 -40.5,8.25t-33.25,22.5t-22.5,33.5t-8.25,40.75l0,209 q0,21.5 8.25,40.5t 22.5,33.25t 33.25,22.5t 40.5,8.25l 209.5,0 zM 212.5,120.5q 24,0 45.5,8t 37.5,21.75t 25.25,32.5t 9.25,39.75t-9.25,39.75
t-25.25,32.5t-37.5,21.75t-45.5,8q-24.5,0 -46-8t-37.5-21.75t-25.25-32.5t-9.25-39.75q0-25.5 13.25-47t 35.25-36q-1.5-9 -9-15.25t-18-7.25q 8-1.5 17-1.5q 24,0 39.5,11q 18.5-6 40-6z" horiz-adv-x="425"  />
<glyph unicode="&#x72;&#x6f;&#x75;&#x6e;&#x64;&#x65;&#x64;&#x6c;&#x69;&#x6e;&#x6b;&#x65;&#x64;&#x69;&#x6e;" d="M 317,429q 21.5,0 40.5-8.25t 33.25-22.5t 22.5-33.25t 8.25-40.5l0-209 q0-21.5 -8.25-40.75t-22.5-33.5t-33.25-22.5t-40.5-8.25l-209.5,0 q-21.5,0 -40.5,8.25t-33.25,22.5t-22.5,33.5t-8.25,40.75l0,209 q0,21.5 8.25,40.5t 22.5,33.25t 33.25,22.5t 40.5,8.25l 209.5,0 zM 147,272l-52.5,0 l0-170 l 52.5,0 l0,170 zM 121,285.5q 10.5,0 18.25,7.5t 7.75,18.5
t-7.75,18.5t-18.25,7.5q-11,0 -18.75-7.5t-7.75-18.5t 7.75-18.5t 18.75-7.5zM 330,200.5q0,18 -10,35.25t-26,26.25q-14.5,8 -33.75,8.5t-34.75-6.5l0,8 l-52.5,0 l0-170 l 52.5,0 l0,104 l 21.5,10.5q 4,2 11,2t 10.5-2.5q 3-1.5 6-6.5t 3-9l0-98.5 l 52.5,0 l0,98.5 z" horiz-adv-x="425"  />
<glyph unicode="&#x72;&#x6f;&#x75;&#x6e;&#x64;&#x65;&#x64;&#x6d;&#x65;&#x74;&#x61;&#x63;&#x61;&#x66;&#x65;" d="M 317,429q 21.5,0 40.5-8.25t 33.25-22.5t 22.5-33.25t 8.25-40.5l0-209 q0-21.5 -8.25-40.75t-22.5-33.5t-33.25-22.5t-40.5-8.25l-209.5,0 q-21.5,0 -40.5,8.25t-33.25,22.5t-22.5,33.5t-8.25,40.75l0,209 q0,21.5 8.25,40.5t 22.5,33.25t 33.25,22.5t 40.5,8.25l 209.5,0 zM 232.5,111q 3.5,10 6.5,19.25t 4,12.25q-3,2 -11.25,8t-16.75,13
q-10,8 -22.5,17l 62.5,0 q 1,0 4,9t 6.5,20q 4,13 8.5,29.5q 4.5-16.5 8.5-29.5q 3.5-11 6.75-20t 4.25-9l 33,0 l-52.5,157l-42.5-127.5l-137,0 zM 330,171l-43,0 l-13,40l-13-40l-43,0 l 34.5-26l-13-43l 34.5,27l 34.5-27l-13,43z" horiz-adv-x="425"  />
<glyph unicode="&#x72;&#x6f;&#x75;&#x6e;&#x64;&#x65;&#x64;&#x6d;&#x6f;&#x62;&#x69;&#x6c;&#x65;&#x6d;&#x65;" d="M 317,429q 21.5,0 40.5-8.25t 33.25-22.5t 22.5-33.25t 8.25-40.5l0-209 q0-21.5 -8.25-40.75t-22.5-33.5t-33.25-22.5t-40.5-8.25l-209.5,0 q-21.5,0 -40.5,8.25t-33.25,22.5t-22.5,33.5t-8.25,40.75l0,209 q0,21.5 8.25,40.5t 22.5,33.25t 33.25,22.5t 40.5,8.25l 209.5,0 zM 299.5,141.5q 9,0 17,4.75t 13.75,12.25t 9.25,16.25t 3.5,16.25
q0,15.5 -10,23t-20.5,11q 1,3.5 1.5,7t 0.5,7.5q0,12 -5,22.75t-13.5,18.75t-19.75,12.75t-24.25,4.75q-21,0 -37.25-11.75t-22.25-29.75q-10.5,13 -26.5,13q-15,0 -25.75-12t-10.75-29l0-2.5 q-1.5,0.5 -3.25,0.5l-3.25,0 q-6,0 -13.25-2t-13.5-6.5t-10.5-11.25t-4.25-16.25q0-9 3.5-18t 9.25-16t 13.75-11.25t 17-4.25
l 174.5,0 z" horiz-adv-x="425"  />
<glyph unicode="&#x72;&#x6f;&#x75;&#x6e;&#x64;&#x65;&#x64;&#x61;&#x62;&#x6f;&#x75;&#x74;&#x6d;&#x65;" d="M 295,260q 13.5,0 22.5-10.5q 6-7.5 6.5-19.5l-59,0 q 0.5,13.5 9.5,21.5q 8.5,8.5 20.5,8.5zM 317,429q 21.5,0 40.5-8.25t 33.25-22.5t 22.5-33.25t 8.25-40.5l0-209 q0-21.5 -8.25-40.75t-22.5-33.5t-33.25-22.5t-40.5-8.25l-209.5,0 q-21.5,0 -40.5,8.25t-33.25,22.5t-22.5,33.5t-8.25,40.75l0,209 q0,21.5 8.25,40.5t 22.5,33.25t 33.25,22.5t 40.5,8.25
l 209.5,0 zM 225,239.5q0,17 -8.5,26.5q-8.5,8.5 -24.5,8.5q-20,0 -32.5-18.5q-3,9 -10.5,13.5q-7,5 -19.5,5q-10.5,0 -19-5q-7.5-4 -13-12l0,14.5 l-16,0 l0-104.5 l 18,0 l0,54.5 q0,14 3,21.5q 2,7 9,11.5q 6,4 14,4q 10,0 14.5-6q 4.5-5.5 4.5-17.5l0-68 l 18,0 l0,61 q0,16.5 7,23.5q 8,7 18.5,7q 6.5,0 11-3q 4-2 6.5-7.5q 1.5-4.5 1.5-15
l0-66 l 18,0 l0,72 zM 343,220q0,25.5 -13.5,40t-34.5,14.5q-22,0 -35.5-14.5q-14-14.5 -14-41q0-25.5 13.5-39.5t 37-14q 18.5,0 30,8.5q 12,9 16.5,25l-18.5,2.5q-4.5-11.5 -11-16.5t-17-5q-13,0 -22,9q-9.5,9 -10,26.5l 79,0 l0,4.5 z" horiz-adv-x="425"  />
<glyph unicode="&#x72;&#x6f;&#x75;&#x6e;&#x64;&#x65;&#x64;&#x73;&#x6d;&#x75;&#x67;&#x6d;&#x75;&#x67;" d="M 317,429q 21.5,0 40.5-8.25t 33.25-22.5t 22.5-33.25t 8.25-40.5l0-209 q0-21.5 -8.25-40.75t-22.5-33.5t-33.25-22.5t-40.5-8.25l-209.5,0 q-21.5,0 -40.5,8.25t-33.25,22.5t-22.5,33.5t-8.25,40.75l0,209 q0,21.5 8.25,40.5t 22.5,33.25t 33.25,22.5t 40.5,8.25l 209.5,0 zM 280,325q-10,0 -16.75-5.25t-6.75-12.75q0-7 6.75-12.25
t 16.75-5.25t 16.75,5.25t 6.75,12.25q0,7.5 -6.75,12.75t-16.75,5.25zM 174,325q-10,0 -17-5.25t-7-12.75q0-7 7-12.25t 17-5.25t 16.75,5.25t 6.75,12.25q0,7.5 -6.75,12.75t-16.75,5.25zM 199,89q 26,0 46.75,9.5t 36.75,24.25t 27.5,32.5t 18.75,34t 10.75,28.75t 3.5,17q0,6.5 -2.75,10.25t-6.25,5.75
q-4,2 -8.5,3l-201.5,0 q-1.5-0.5 -3.5-2q-1.5-1.5 -3.75-4t-4.25-7q-11-22 -13.5-48.25t 6.75-49.5t 31.75-38.75t 61.5-15.5zM 132.5,142q-6,10 -8.5,21.75t-2,23.75t 3.75,23t 7.75,20l 185,0 q-1.5-6 -5.5-17t-10.75-24t-16.25-26.75t-22.25-25t-29-18.25t-35.75-7q-8.5,0 -17.75,1.25t-18.25,4.5t-17,9
t-13.5,14.75z" horiz-adv-x="425"  />
<glyph unicode="&#x72;&#x6f;&#x75;&#x6e;&#x64;&#x65;&#x64;&#x6d;&#x79;&#x73;&#x70;&#x61;&#x63;&#x65;" d="M 317,429q 21.5,0 40.5-8.25t 33.25-22.5t 22.5-33.25t 8.25-40.5l0-209 q0-21.5 -8.25-40.75t-22.5-33.5t-33.25-22.5t-40.5-8.25l-209.5,0 q-21.5,0 -40.5,8.25t-33.25,22.5t-22.5,33.5t-8.25,40.75l0,209 q0,21.5 8.25,40.5t 22.5,33.25t 33.25,22.5t 40.5,8.25l 209.5,0 zM 253,337.5q-14.5,0 -25-10.25t-10.5-24.75t 10.5-25t 25-10.5t 24.75,10.5
t 10.25,25t-10.25,24.75t-24.75,10.25zM 184.5,329.5q-11.5,0 -19.25-8t-7.75-19q0-11.5 7.75-19.5t 19.25-8t 19.25,8t 7.75,19.5q0,11 -7.75,19t-19.25,8zM 132.5,323q-8.5,0 -14.5-6t-6-14.5t 6-14.75t 14.5-6.25t 14.75,6.25t 6.25,14.75t-6.25,14.5t-14.75,6zM 304,205.5q0,10 -4,18.75t-10.75,15.25
t-15.75,10.25t-19,3.75t-19-3.75t-15.5-10.25q-3,11.5 -12.75,19t-22.25,7.5q-8.5,0 -15.5-3.5t-12.5-9q-2,8 -8.75,13.25t-15.25,5.25q-10.5,0 -18-7.25t-7.5-17.75l0-40 l 39.5,0 l0-39.5 l 52,0 l0-52 l 105,0 l0,90 z" horiz-adv-x="425"  />
<glyph unicode="&#x72;&#x6f;&#x75;&#x6e;&#x64;&#x65;&#x64;&#x79;&#x6f;&#x75;&#x74;&#x75;&#x62;&#x65;" d="M 317,429q 21.5,0 40.5-8.25t 33.25-22.5t 22.5-33.25t 8.25-40.5l0-209 q0-21.5 -8.25-40.75t-22.5-33.5t-33.25-22.5t-40.5-8.25l-209.5,0 q-21.5,0 -40.5,8.25t-33.25,22.5t-22.5,33.5t-8.25,40.75l0,209 q0,21.5 8.25,40.5t 22.5,33.25t 33.25,22.5t 40.5,8.25l 209.5,0 zM 180.5,239q0-11.5 7.5-18q 7-6.5 20-6.5q 13.5,0 20.5,6.5q 7.5,6 7.5,18
l0,46 q0,9.5 -7.5,16.5q-7,6.5 -19.5,6.5q-13,0 -20.5-6q-8-6 -8-16.5l0-46.5 zM 153.5,214.5l-59,0 l0-16 l 20,0 l0-94 l 19,0 l0,94 l 20,0 l0,16 zM 154,266.5l 25,71l-22,0 l-13-48.5l-1.5,0 l-14,48.5l-21.5,0 l 25.5-73l0-48 l 21.5,0 l0,50 zM 209.5,185.5l-17,0 l0-61.5 q-1-1.5 -2.5-2.5l-3-2q-3-1.5 -4.5-1.5q-2.5,0 -3.5,1t-1,4.5l0,62 l-17,0 l0-68 q0-7 3-10.5
q 3-4 8.5-4q 4.5,0 10,3q 4.5,2 10,7.5l0-9 l 17,0 l0,81 zM 271,166q0,10 -4.5,15.5q-3.5,5 -12,5q-4.5,0 -8-2q-4-1.5 -7-5.5l0,35.5 l-17.5,0 l0-110 l 17.5,0 l0,6 q 1.5-2 3.25-3.25t 3.75-2.25q 3.5-1.5 9-1.5q 7.5,0 11.5,4.5q 4,5 4,13l0,45 zM 265,215.5q 6,0 11,2.5t 11,8.5l0-10 l 19,0 l0,89.5 l-19,0 l0-68 q-2-2.5 -6-5q-3-1.5 -5-1.5
q-3.5,0 -4,1.5q-1.5,1.5 -1.5,4.5l0,68.5 l-19,0 l0-75 q0-8 3.5-11.5q 2.5-4 10-4zM 330,163.5q0,12 -6.5,18q-6,6 -18,6q-11.5,0 -18.5-6.5q-7-7 -7-17.5l0-36 q0-12 6.5-18.5q 7-7 18-7q 12.5,0 19,6.5q 6.5,6 6.5,19l0,4 l-17.5,0 l0-3.5 q0-7.5 -1.5-9.5q-2-2 -6-2q-5,0 -6,2.5q-1.5,2 -1.5,9l0,15 l 32.5,0 l0,20.5 zM 305,173.5
q 4,0 5.5-2.5q 2-2 2-7l0-8.5 l-15,0 l0,8.5 q0,4.5 1.5,7q 2.5,2.5 6,2.5zM 246.5,173.5q 3.5,0 5-2q 2-2 2-6l0-42 q0-4 -1.5-5.5q-1.5-2 -4.5-2q-2,0 -4,1q-2.5,1 -4,3l0,50.5 q 2,2 3.5,2.5q 1,0.5 3.5,0.5zM 208,230q-4,0 -5.5,2q-2.5,1.5 -2.5,5.5l0,48.5 q0,2.5 2.5,5q 2,1.5 5.5,1.5t 6.5-1.5q 2-2 2-5l0-48.5 q0-4 -2-5.5q-2-2 -6.5-2z" horiz-adv-x="425"  />
<glyph unicode="&#x72;&#x6f;&#x75;&#x6e;&#x64;&#x65;&#x64;&#x64;&#x72;&#x69;&#x62;&#x62;&#x6c;&#x65;" d="M 234.5,237.5q 15.5,7 30.25,16.5t 28.25,21q 8.5-12 12.75-26t 4.75-28.5q-19,4.5 -37.5,4.5q-7.5,0 -15.5-0.75t-16.5-2.75l-3,8t-3.5,8zM 317,429q 21.5,0 40.5-8.25t 33.25-22.5t 22.5-33.25t 8.25-40.5l0-209 q0-21.5 -8.25-40.75t-22.5-33.5t-33.25-22.5t-40.5-8.25l-209.5,0 q-21.5,0 -40.5,8.25t-33.25,22.5t-22.5,33.5t-8.25,40.75
l0,209 q0,21.5 8.25,40.5t 22.5,33.25t 33.25,22.5t 40.5,8.25l 209.5,0 zM 212.5,102q 24,0 45.5,9.25t 37.5,25.25t 25.25,37.5t 9.25,46q0,24 -9.25,45.5t-25.25,37.5t-37.5,25.25t-45.5,9.25q-24.5,0 -46-9.25t-37.5-25.25t-25.25-37.5t-9.25-45.5q0-24.5 9.25-46t 25.25-37.5t 37.5-25.25t 46-9.25zM 248,203q 14,2.5 25,2.5q 18.5,0 35.5-5
q-4-20.5 -16.25-37.5t-30.25-27.5q-2,17.5 -5.5,34.5t-8.5,33zM 280.5,290q-13-10.5 -26.5-19.25t-28-15.25q-8.5,15.5 -18,30.25t-21,28.75q 6,1.5 12.25,2.5t 13.25,1q 19,0 36.5-7.25t 31.5-20.75zM 155.5,140q 13,21 31.75,35.75t 41.25,22.25q 11.5-34.5 14.5-71q-14.5-5 -30.5-5q-32.5,0 -57,18zM 222,216.5
q-25-8.5 -46-24.5t-35.5-38.5q-24.5,26 -26,62q 4-0.5 7-0.5l 6.5,0 q 22.5,0 44.75,3.75t 43.25,11.75q 2-3.5 3.25-7t 2.75-7zM 207.5,248q-38.5-13.5 -79.5-13.5l-6.75,0 t-5.75,0.5q 3.5,23 17.25,42t 34.75,30q 23-27.5 40-59z" horiz-adv-x="425"  />
<glyph unicode="&#x72;&#x6f;&#x75;&#x6e;&#x64;&#x65;&#x64;&#x64;&#x69;&#x67;&#x67;&#x61;&#x6c;&#x74;" d="M 317,194l-13,0 l0,39 l 13,0 l0-39 zM 317,429q 21.5,0 40.5-8.25t 33.25-22.5t 22.5-33.25t 8.25-40.5l0-209 q0-21.5 -8.25-40.75t-22.5-33.5t-33.25-22.5t-40.5-8.25l-209.5,0 q-21.5,0 -40.5,8.25t-33.25,22.5t-22.5,33.5t-8.25,40.75l0,209 q0,21.5 8.25,40.5t 22.5,33.25t 33.25,22.5t 40.5,8.25l 209.5,0 zM 147,298.5l-26,0 l0-39.5 l-39.5,0 l0-91.5 l 65.5,0 l0,91.5 
l0,39.5 zM 186,259l-26,0 l0-91.5 l 26,0 l0,91.5 zM 186,298.5l-26,0 l0-26.5 l 26,0 l0,26.5 zM 264.5,259l-65.5,0 l0-91.5 l 39.5,0 l0-13 l-39.5,0 l0-26 l 65.5,0 l0,26 l0,13 l0,91.5 zM 343,259l-65.5,0 l0-91.5 l 39.5,0 l0-13 l-39.5,0 l0-26 l 65.5,0 l0,26 l0,13 l0,91.5 zM 107.5,233l 13.5,0 l0-39 l-13.5,0 l0,39 zM 238.5,194l-13,0 l0,39 l 13,0 l0-39 z" horiz-adv-x="425"  />
<glyph unicode="&#x72;&#x6f;&#x75;&#x6e;&#x64;&#x65;&#x64;&#x62;&#x6c;&#x6f;&#x67;&#x67;&#x65;&#x72;" d="M 185,251q-6,0 -10.25,4.25t-4.25,9.75q0,6 4.25,10t 10.25,4l 41,0 q 6,0 10.25-4t 4.25-10q0-5.5 -4.25-9.75t-10.25-4.25l-41,0 zM 317,429q 21.5,0 40.5-8.25t 33.25-22.5t 22.5-33.25t 8.25-40.5l0-209 q0-21.5 -8.25-40.75t-22.5-33.5t-33.25-22.5t-40.5-8.25l-209.5,0 q-21.5,0 -40.5,8.25t-33.25,22.5t-22.5,33.5
t-8.25,40.75l0,209 q0,21.5 8.25,40.5t 22.5,33.25t 33.25,22.5t 40.5,8.25l 209.5,0 zM 344.5,239l-0.5,3.5l-2,4l-3.5,2.5q-1.5,1.5 -6,1.5t-9.5,0.25t-9.75,0.75t-6.75,2.5q-3.5,3 -4.25,8t-1.75,12t-1.75,11t-1.5,6.5t-1.75,4t-2,4q-4,8 -10.75,15.25t-14.75,12.5t-16.5,8.5t-15.5,4.25l-52,0 q-15.5,0 -29-6t-23.75-16t-16.25-23.5t-6-29
l0-86.5 q0-15.5 6-29t 16.25-23.75t 23.75-16t 29-5.75l 85.5,0 q 15.5,0 29,5.75t 23.5,16t 16,23.75t 6,29zM 269,194q 5.5,0 9.75-4t 4.25-10q0-5.5 -4.25-9.75t-9.75-4.25l-84,0 q-6,0 -10.25,4.25t-4.25,9.75q0,6 4.25,10t 10.25,4l 84,0 z" horiz-adv-x="425"  />
<glyph unicode="&#x72;&#x6f;&#x75;&#x6e;&#x64;&#x65;&#x64;&#x67;&#x6f;&#x77;&#x61;&#x6c;&#x6c;&#x61;" d="M 138.5,140l0-9.25 t-1-10.25q-0.5-0.5 -1.5-1t-3.5-0.5q-8,0 -8,6.5q0,5.5 3.75,10.5t 10.25,10.5l0-6.5 zM 199,147.5q-3.5-5 -11-6.5l-3.5,0 l 0.5,1q 2.5,5.5 6.75,7.75t 6.75,2.25l 1,0 q 1-2.5 -0.5-4.5zM 146,302q 8-8.5 10.25-13.5t 1.75-6.5q0-1 -2-2q-1,0 -1.5-0.25t-1-0.25q-3.5,0 -5.5,4.5t-2,9.5l0,8.5 zM 317,429
q 21.5,0 40.5-8.25t 33.25-22.5t 22.5-33.25t 8.25-40.5l0-209 q0-21.5 -8.25-40.75t-22.5-33.5t-33.25-22.5t-40.5-8.25l-209.5,0 q-21.5,0 -40.5,8.25t-33.25,22.5t-22.5,33.5t-8.25,40.75l0,209 q0,21.5 8.25,40.5t 22.5,33.25t 33.25,22.5t 40.5,8.25l 209.5,0 zM 339.5,110q 2.5,5.5 3.5,13q-2.5,2.5 -4.75,4.25t-4.75,4.25q-2.5,2 -4.25,3.5t-3.75,3.5q0,3 -0.5,6
l-1,6q-9.5,48.5 -42.25,75.5t-92.75,37l0,2.5 q 1.5,11 3.25,24t 2,25t-1.5,22.5t-6.75,17q-5.5,7.5 -15.5,8.5l-2,0 q-8.5,0 -17-6.5t-14-27.5q-5,4 -11,7t-13,3q-9.5,0 -19-6q-9-5 -10-16.5q0-8 4.75-17t 12-17.75t 16-16.75t 16.25-14q-6-4 -14-10.75t-16-14.5t-14-16.5t-7.5-17.25q-2.5-13 5-22.5
q 7.5-8.5 19.5-8.5q 4,0 10,1.5t 13.75,6.25t 16.75,13.75t 19,23.5q 2-7 1-15t-9.5-14.5l-5.5-3.5q-16.5-12 -28-22.25t-11.5-24.75q0-8.5 5.5-13.75t 14.5-5.25q 5.5,0 10.75,2.25t 6.75,7.25q 2.5,7.5 2.5,16q 3.5-1 7.75-1.5t 8.75-1.5q-2-11 -2-24.75t 3.5-26.75l 12.5,0 q-4,11.5 -4,25.5t 2,25.5q 4-0.5 9,0.5q 13.5,2.5 19.5,12
q 4,7 1.5,15q-2.5,8.5 -12.5,8.5q-6,0 -13.25-4.25t-11.25-12.75q-1-1.5 -1.5-2.75t-1.5-3.25q-4.5,0.5 -8.75,1.25t-7.75,1.75q-4,1 -7.5,1.5l-7.5,1.5q 4,3.5 9,7t 10.5,7.5l 5.5,4q 8,6 11.5,13.75t 3.5,15.5t-2,15t-4.5,11.75l-4.5,9.5l-6-9q-10.5-17.5 -19.75-27.25t-16.5-14.75t-12.5-6.25t-7.25-1.25q-6.5,0 -10,4.5
q-3.5,3.5 -2.5,11.5q 1.5,7.5 8,15.75t 15,16.25t 17,14.25t 13.5,9.75l 8,5.5l-8,5q-8.5,6 -17.5,14t-16.25,16.5t-12,16.25t-4.75,13.25q0,4.5 3.5,6.5q 10,6 17.75,3.25t 16.75-11.25q-1-7.5 -1.25-13t-0.25-7.5q0-9.5 5-18t 15-8.5q 3,0 7,1.5q 5.5,2.5 7.25,5.5t 2.25,5.5q 3,13.5 -16.5,33l-5.5,5.5q 1,5 2.5,10.75t 4.25,10.75
t 6.25,8t 8.5,2.5q 5-1 7-4q 3.5-5 4.75-14.25t 0.75-20.5t-2-23t-3-20.75l-2-15l 6-1q 59.5-8.5 90.75-33.25t 40.25-70.25q-2,1 -3.5,1.5l-3,1q-8,2.5 -17.75,4.25t-19.75,1.75q-33,0 -44.5-23.5q-6.5-13 -8.25-28t 1.75-27.5l 12.5,0 q-3.5,10.5 -2.25,24.25t 7.25,25.75q 7.5,16.5 33.5,16.5q 9,0 18.25-1.75
t 16.25-3.75q 5-1.5 11-6.5q-0.5-14.5 -6.75-23.5t-13.75-14t-13.75-6.75t-6.75-1.75l-13-2.5l 7-6l 20.5,0 q 11.5,4.5 23,15.25t 14.5,29.75q 0.5,0 0.5-0.25t 0.5-0.25q 3.5-3 6.75-6.25t 7.25-5.75z" horiz-adv-x="425"  />
<glyph unicode="&#x72;&#x6f;&#x75;&#x6e;&#x64;&#x65;&#x64;&#x76;&#x69;&#x64;&#x64;&#x6c;&#x65;&#x72;" d="M 317,429q 21.5,0 40.5-8.25t 33.25-22.5t 22.5-33.25t 8.25-40.5l0-209 q0-21.5 -8.25-40.75t-22.5-33.5t-33.25-22.5t-40.5-8.25l-209.5,0 q-21.5,0 -40.5,8.25t-33.25,22.5t-22.5,33.5t-8.25,40.75l0,209 q0,21.5 8.25,40.5t 22.5,33.25t 33.25,22.5t 40.5,8.25l 209.5,0 zM 273,207q 12,0 22.25,4.5t 18,12.25t 12.25,18.25t 4.5,23t-4.5,23t-12.25,18.5
t-18,12.5t-22.25,4.5q-10.5,0 -20-4.25t-17-11.5t-12.5-16.5t-6.5-19.25l-2,0 q-1.5,10 -6.5,19.25t-12.5,16.5t-17,11.5t-20,4.25q-12,0 -23.25-4.75t-20-12.75t-14-18.75t-5.25-23.25t 4.25-22.75t 11.25-17.75t 16-12t 19-4.5l 13,0 l0-23.5 l-65.5,18.5l0-79.5 l 65.5,20.5l0-27.5 l 95.5,0 l-28,91.5l 45.5,0 zM 274,281q 7,0 11.75-5
t 4.75-12t-4.75-12t-11.75-5q-6.5,0 -11.25,5t-4.75,12t 4.75,12t 11.25,5zM 159,281q 7,0 11.5-5t 4.5-12t-4.5-12t-11.5-5t-11.5,5t-4.5,12t 4.5,12t 11.5,5z" horiz-adv-x="425"  />
<glyph unicode="&#x72;&#x6f;&#x75;&#x6e;&#x64;&#x65;&#x64;&#x62;&#x65;&#x68;&#x61;&#x6e;&#x63;&#x65;" d="M 173.5,238.5q-3-2 -6.75-3.75t-8.75-1.75l-24,0 l0,39 l 20.5,0 q 5.5,0 9.5-1t 7.5-2.5q 4-1.5 5.75-5.5t 1.75-9.5q0-11 -5.5-15zM 173,206q 4.5-2.5 6.75-5.75t 2.25-9.75q0-14.5 -9.5-19.5q-6-3.5 -14.5-3.5l-24,0 l0,39.5 l 24.5,0 l 8.25,0 t 6.25-1zM 317,429q 21.5,0 40.5-8.25t 33.25-22.5t 22.5-33.25t 8.25-40.5l0-209 
q0-21.5 -8.25-40.75t-22.5-33.5t-33.25-22.5t-40.5-8.25l-209.5,0 q-21.5,0 -40.5,8.25t-33.25,22.5t-22.5,33.5t-8.25,40.75l0,209 q0,21.5 8.25,40.5t 22.5,33.25t 33.25,22.5t 40.5,8.25l 209.5,0 zM 251.5,272l 52.5,0 l0,26.5 l-52.5,0 l0-26.5 zM 206,164q 6.5,11.5 6.5,25q0,13 -6,23q-5.5,9 -16.5,13.5q 7,4 11,9q 6.5,8.5 6.5,23t-6.5,24q-10.5,16 -37,17
l-69.5,0 l0-157 l 65,0 q 5.5,0 10.5,0.5t 9.5,1.5q 9.5,2.5 16,8q 3.5,2.5 5.75,5.5t 4.75,7zM 330,194q-0.5,4.5 -0.5,8.5q0,3.5 -0.25,7t-0.25,5.5q-1,7 -3,12.25t-5,10.25q-7,11.5 -17,16.5t-23,5q-22,0 -35.5-15q-13.5-16 -13.5-44.5q0-30.5 15-44t 35-13.5q 11.5,0 20.75,4.5t 16.25,12.5q 4,5.5 6.5,10t 3,11.5l-26.5,0 q-1-7 -2.25-7.25
t-2.75-1.75q-3-2.5 -6.5-4.25t-8-1.75q-8.5,0 -14.5,4.5q-4.5,3 -7,8.5t-3,15.5l 72,0 zM 281,233q 9,0 15-6q 3.5-3 5-6.5t 2-13.5l-44.5,0 q 1,10 2.75,13t 4.25,6.5q 5.5,6.5 15.5,6.5z" horiz-adv-x="425"  />
<glyph unicode="&#x72;&#x6f;&#x75;&#x6e;&#x64;&#x65;&#x64;&#x74;&#x77;&#x69;&#x74;&#x74;&#x65;&#x72;" d="M 317,429q 21.5,0 40.5-8.25t 33.25-22.5t 22.5-33.25t 8.25-40.5l0-209 q0-21.5 -8.25-40.75t-22.5-33.5t-33.25-22.5t-40.5-8.25l-209.5,0 q-21.5,0 -40.5,8.25t-33.25,22.5t-22.5,33.5t-8.25,40.75l0,209 q0,21.5 8.25,40.5t 22.5,33.25t 33.25,22.5t 40.5,8.25l 209.5,0 zM 199,154.5q-10,0 -18,8t-8,18l0,39.5 l 104.5,0 q 10,0 18.25,8t 8.25,18
t-8.25,18t-18.25,8l-104.5,0 l0,39.5 q0,10 -8,18t-18,8t-18-8t-8-18l0-131 q0-19.5 6.75-34.25t 17.75-24.5t 25-14.75t 28.5-5l 78.5,0 q 10,0 18.25,8.25t 8.25,18.25t-8.25,18t-18.25,8l-78.5,0 z" horiz-adv-x="425"  />
<glyph unicode="&#x63;&#x69;&#x72;&#x63;&#x6c;&#x65;&#x63;&#x6f;&#x72;&#x6f;&#x66;&#x6c;&#x6f;&#x74;" d="M 212.5,429.5q 43.5,0 81.5-16.5t 66.25-44.75t 44.75-66.25t 16.5-81.5q0-43 -16.5-81t-44.75-66.5t-66.25-45t-81.5-16.5t-81.5,16.5t-66.25,45t-44.75,66.5t-16.5,81q0,43.5 16.5,81.5t 44.75,66.25t 66.25,44.75t 81.5,16.5zM 113,298.5q-1.5-7.5 9-8.5t 25.5,0q 7,0.5 13.5-4.25t 11.25-14.25t 7.5-23.25t 2.25-30.25
q 6.5,2 15,3q0,4 -1.25,13.75t-5,21.5t-10.5,23.5t-17.75,20.25q 6,0.5 14.5-1t 18.5-7.5t 21.5-17.5t 24-31q 4.5,2.5 9.5,3q-4.5,7.5 -13.75,19.75t-21.75,23.5t-28.25,18t-32.75,2.25q 0.5,6 0,11.75t-2.25,9.75t-4.75,5.5t-7.5-1q-5.5-3 -6.75-5.5t-1-5.5t 1-6.5t 0.25-8q-1-4.5 -3.75-5.75t-6.25-1.25t-6.5-0.5t-3.5-4z
M 203,104.5q 10.5,0 20,4t 16.5,11t 11,16.5t 4,20t-4,20t-11,16.5t-16.5,11t-20,4t-20-4t-16.5-11t-11-16.5t-4-20t 4-20t 11-16.5t 16.5-11t 20-4zM 266.5,140.5q 9.5,0.5 17.75,4.25t 14.5,10.25t 9.75,15t 3.5,18q0,20 -14,34t-34,14q-11.5,0 -21.25-5.25t-16.75-13.75q 19-7 30.75-23.5t 11.75-37.5q0-9 -2-15.5z
M 187.5,187q 5,0 8.25-3.25t 3.25-8.25q0-4.5 -3.25-7.75t-8.25-3.25q-4.5,0 -7.75,3.25t-3.25,7.75q0,5 3.25,8.25t 7.75,3.25z" horiz-adv-x="425"  />
<glyph unicode="&#x72;&#x6f;&#x75;&#x6e;&#x64;&#x65;&#x64;&#x72;&#x65;&#x74;&#x77;&#x65;&#x65;&#x74;" d="M 317,429q 21.5,0 40.5-8.25t 33.25-22.5t 22.5-33.25t 8.25-40.5l0-209 q0-21.5 -8.25-40.75t-22.5-33.5t-33.25-22.5t-40.5-8.25l-209.5,0 q-21.5,0 -40.5,8.25t-33.25,22.5t-22.5,33.5t-8.25,40.75l0,209 q0,21.5 8.25,40.5t 22.5,33.25t 33.25,22.5t 40.5,8.25l 209.5,0 zM 251.5,141.5l-39,39l-39.5,0 l0,52.5 l 39.5,0 l-65.5,65.5l-65.5-65.5l 39.5,0 l0-78.5 
q0-5 4-9t 9-4l 117.5,0 zM 343,207l-39,0 l0,80 q0,5.5 -4,8.5t-9.5,3l-117.5,0 l 39.5-39.5l 39,0 l0-52 l-39,0 l 65-65.5z" horiz-adv-x="425"  />
<glyph unicode="&#x72;&#x6f;&#x75;&#x6e;&#x64;&#x65;&#x64;&#x70;&#x6f;&#x64;&#x63;&#x61;&#x73;&#x74;" d="M 317,429q 21.5,0 40.5-8.25t 33.25-22.5t 22.5-33.25t 8.25-40.5l0-209 q0-21.5 -8.25-40.75t-22.5-33.5t-33.25-22.5t-40.5-8.25l-209.5,0 q-21.5,0 -40.5,8.25t-33.25,22.5t-22.5,33.5t-8.25,40.75l0,209 q0,21.5 8.25,40.5t 22.5,33.25t 33.25,22.5t 40.5,8.25l 209.5,0 zM 212,102q 16,0 27.25,14t 11.25,42q0,14 -3.25,21.5t-8.5,11t-12.25,4
t-14.5,0.5t-14.5-0.5t-12.25-4t-8.5-11t-3.25-21.5q0-28 11.25-42t 27.25-14zM 186,224q0-10 7.5-17.25t 18.5-7.25t 18.5,7.25t 7.5,17.25t-7.5,17t-18.5,7t-18.5-7t-7.5-17zM 294.5,210.5q0,1 0.25,2.25t 0.25,2.25q0,16 -6.5,31t-17.75,26.75t-26.25,18.75t-32,7q-17.5,0 -32.5-7t-26.5-18.75t-18-26.75t-6.5-31
q0-1 0.25-2.25t 0.25-2.25q 1,15 7.75,26.5t 18,19.25t 26,11.75t 31.25,4t 31-4t 25.5-11.75t 17.75-19.25t 7.75-26.5zM 342.5,215q0,25.5 -10.25,47.75t-28,38.75t-41.5,26.25t-50.75,9.75t-50.75-9.75t-41.5-26.25t-28-38.75t-10.25-47.75l0-5 q 1,24.5 11.5,43.5t 28.25,31.75t 41,19.5t 49.75,6.75t 49.75-6.75
t 40.75-19.5t 28.25-31.75t 11.75-43.5l0,5 z" horiz-adv-x="425"  />
<glyph unicode="&#x63;&#x69;&#x72;&#x63;&#x6c;&#x65;&#x61;&#x70;&#x70;&#x73;&#x74;&#x6f;&#x72;&#x65;" d="M 212,429.5q 43.5,0 81.5-16.5t 66.5-44.75t 45-66.25t 16.5-81.5t-16.5-81.5t-45-66.5t-66.5-45t-81.5-16.5t-81.5,16.5t-66.25,45t-44.75,66.5t-16.5,81.5t 16.5,81.5t 44.75,66.25t 66.25,44.75t 81.5,16.5zM 81.5,200q0-6 6-6l 26.5,0 l 33,52.5l-59.5,0 q-6,0 -6-4.5l0-42 zM 126,133q 2.5,1.5 2.25,3.5t-2.25,3l-15.5,9
q-5,2.5 -6-3l-2.5-23.5q-0.5-2.5 0.75-3.25t 3.25,0.75zM 131,146.5q 2-1.5 4.5-1t 3.5,3l 71.5,125q 1.5,2 1,4.5t-3,3.5l-15.5,9q-5.5,2.5 -8-2.5l-72-124.5q-2.5-5 2.5-8.5zM 250.5,194l-22,52.5l-16,0 l-33-52.5l 71,0 zM 274.5,186q 4.5-2.5 7-1.75t 5.5,2.25q 3,1 6.75,5t 1.25,9.5q-1.5,2.5 -7.5,13.5t-13.5,25.25t-15.25,28.5t-13.25,23.25
q-5.5,8.5 -11.75,19.25t-11.75,20t-10,15.25t-6.5,5q-3-1.5 -0.75-10.25t 6.75-20.25t 9.75-23t 8.25-18.5t 9.5-22t 13.5-30.25t 13.25-27.5t 8.75-13.25zM 294.5,153.5q 3.5-5.5 9-2.5l 6.5,4q 2.5,1 3,3.75t-0.5,5.25l-7.5,14q-1,2.5 -3.5,3.25t-5-0.25l-9-4.5q-2.5-1 -3-3.5t 1-5zM 329,114.5q 1,13 -1,22
q-2,7.5 -6.75,11.75t-14.75-1.25q-1.5-1.5 -3.75-5.5t 2.75-11q 2.5-3.5 6.25-5.5t 7.25-3.5t 6.25-3t 3.75-4zM 343,242q0,2.5 -1.75,3.5t-4.25,1l-52.5,0 l 26.5-52.5l 26,0 q 2.5,0 4.25,1.75t 1.75,4.25l0,42 z" horiz-adv-x="425"  />
<glyph unicode="&#x63;&#x69;&#x72;&#x63;&#x6c;&#x65;&#x65;&#x6d;&#x62;&#x65;&#x72;&#x61;&#x70;&#x70;" d="M 305.5,221q0-5 -0.75-10.25t-0.75-10.75q0-14.5 -4.75-29t-14.75-27q-12-15 -29-23t-41.5-9q-28.5,1.5 -49.5,15t-31,40q0,3 -3.5,6.25t-5,7.25q 1,1 1.25,1.5t 1.25,1.5l-0.5,0 q 2.5,2.5 3,6.5t 1,9.5q 1,9 3.75,22.75t 12.75,27.25q 8.5,11.5 19.75,21.75t 22.25,19.25q 10.5,9 19,16.75t 13.5,15.25q 9.5-7.5 21.5-18
t 22.75-22.5t 18.5-24.5t 8.75-24l 3-24zM 285,156.5q 7.5,9 11.75,19.5t 6.75,21l-7-8.5l-3,24.5q-1,11.5 -8.75,24t-18.5,24.5t-22.75,22.5t-21.5,18q-5-7.5 -13.5-15.5t-19-16.5q-11-9.5 -22.25-19.75t-19.75-21.75q-10-13 -12.75-26.75t-3.75-22.75q-0.5-1 -0.5-3q 26.5-49.5 81.5-51.5q 49.5,1.5 73,32zM 212,430
q 43.5,0 81.75-16.5t 66.75-45t 45-66.5t 16.5-81.5t-16.5-81.75t-45-66.75t-66.75-45t-81.75-16.5t-81.5,16.5t-66.5,45t-45,66.75t-16.5,81.75t 16.5,81.5t 45,66.5t 66.5,45t 81.5,16.5zM 211.5,102.5q 35,1 56,13.75t 32,30.75t 14.5,38.5t 3,37.5t-2.5,27.25t-1.5,7.75q 0.5-4 -0.75-8t-3.25-7.5q-2-4 -5-8
q-2.5,17.5 -16,36.25t-29.5,33.75q-18.5,17.5 -41,34q-0.5-8 -9.25-17t-20.75-19.5t-25.5-22t-23-25q-8.5-11 -12-22.5t-5-20.75t-2-15.5t-2-6.75q-3-1 -7,1q-2,1 -3.5,2.5q 9-30.5 22.75-48.25t 28.75-27t 29-12t 23.5-3.25z" horiz-adv-x="425"  />
<glyph unicode="&#x72;&#x6f;&#x75;&#x6e;&#x64;&#x65;&#x64;&#x77;&#x69;&#x6e;&#x64;&#x6f;&#x77;&#x73;" d="M 317,429q 21.5,0 40.5-8.25t 33.25-22.5t 22.5-33.25t 8.25-40.5l0-209 q0-21.5 -8.25-40.75t-22.5-33.5t-33.25-22.5t-40.5-8.25l-209.5,0 q-21.5,0 -40.5,8.25t-33.25,22.5t-22.5,33.5t-8.25,40.75l0,209 q0,21.5 8.25,40.5t 22.5,33.25t 33.25,22.5t 40.5,8.25l 209.5,0 zM 122.5,244.5q 21,8 39.5,8q 13,0 23.25-4.25t 18.25-9.25l 21.5,72.5
q-3.5,2 -11,5.75t-14,5.25q-7.5,2 -17.5,2q-9-0.5 -18.75-2.5t-21.25-6.5zM 133,155.5q 14,0 24.25-4.25t 18.75-9.75q 2,6.5 5.25,17t 6.25,21.5t 5.75,20.5t 4.25,14.5q-2,1 -4,2.5t-4,2.5q-17,8.5 -32,8.5q-2.5,0 -4-0.5q-10-1 -18.25-2.75t-13.75-4.25l-3-1t-3.5-1l-20.5-71.5q 21,8 38.5,8zM 301.5,194.5
q-19.5-6.5 -38-6.5q-17,0 -28.5,4.25t-19,9.75l-21-72q 2.5-1.5 7.25-3.75t 10.75-4.75t 12.5-4.25t 12.5-1.75q 19.5,0 44,10zM 330,291.5q-20.5-7.5 -39.5-7.5q-16,0 -27.5,4.25t-19,9.75l-21-72.5q 20.5-14 45.5-14q 20.5,0 40,9.5l0,0.5 l 1,0 z" horiz-adv-x="425"  />
<glyph unicode="&#x63;&#x69;&#x72;&#x63;&#x6c;&#x65;&#x66;&#x61;&#x63;&#x65;&#x62;&#x6f;&#x6f;&#x6b;" d="M 212,429.5q 43.5,0 81.75-16.5t 66.75-45t 45-66.5t 16.5-81.5t-16.5-81.75t-45-66.75t-66.75-45t-81.75-16.5t-81.5,16.5t-66.5,45t-45,66.75t-16.5,81.75t 16.5,81.5t 45,66.5t 66.5,45t 81.5,16.5zM 291,338l-44.5,0 q-13,0 -24-4.5t-19.25-12t-12.75-17t-4.5-19l0-26.5 l-39.5,0 l0-52 l 39.5,0 l0-105 l 52.5,0 l0,105 l 39,0 l0,52 l-39,0 
l0,13.5 q0,6 4.75,9.5t 8.25,3.5l 39.5,0 l0,52.5 z" horiz-adv-x="425"  />
<glyph unicode="&#x72;&#x6f;&#x75;&#x6e;&#x64;&#x65;&#x64;&#x73;&#x71;&#x75;&#x69;&#x64;&#x6f;&#x6f;" d="M 317,429q 21.5,0 40.5-8.25t 33.25-22.5t 22.5-33.25t 8.25-40.5l0-209 q0-21.5 -8.25-40.75t-22.5-33.5t-33.25-22.5t-40.5-8.25l-209.5,0 q-21.5,0 -40.5,8.25t-33.25,22.5t-22.5,33.5t-8.25,40.75l0,209 q0,21.5 8.25,40.5t 22.5,33.25t 33.25,22.5t 40.5,8.25l 209.5,0 zM 262,102q 12.5,0 25.5,7t 23.25,18.75t 15.5,27.5t 2.75,33.75t-11,28.5
t-18.75,16t-20.5,7.25t-16.25,2.25q-12.5,0.5 -10.5,11.75t 12.5,29.25q 3.5,6.5 4.5,14.5t-1.25,15.25t-7.25,13.5t-13,9.25l-27,0 q 7,0 12.75-6t 9.75-13.5t 1.25-15.5t-7.75-14.5q-6-8 -15-15q-0.5,4 -3.5,12t-9.75,17.5t-17.5,19t-26.75,16l-21,0 q-1.5,0 -3,0.5t-3.5,0.5q 8-8 16.75-13.5t 15.75-9.5q 8-4.5 12.25-12.75
t 6.25-16.75q 2-9.5 2.5-20q-6.5,0 -14,2q-7,1.5 -15.75,4.25t-19.25,7.25q-8,3.5 -12.5,9.25t-7.25,12.5t-4.5,14.25t-4.25,15q-4-3 -7-6.5t-5.5-7.5q 1.5-4 2.75-8.75t 2.75-10.25q 4.5-19 15.25-32t 22.25-21.5q 13-9.5 29-15.5q-13-3 -26-5q-11-2 -22.5-3.25t-20-0.25q-3,0.5 -6,1.75t-3,3.25l0-27.5 
q 14.5-4 33-3t 36,2q 13.5,0.5 18.5-4.75t 6.25-13t 1.25-17.25t 3.5-18q 9.5-23.5 27.25-32t 41.75-8.5zM 277,221q 9-3 15.5-9.25t 10-14.5t 3.75-17.75t-3.25-19t-10-17t-14.5-12t-17-5.75t-18,1.75t-15.5,9t-10,14.25t-4,17.75t 3,19.5q 3.5,9.5 10,17t 14.5,12t 17.25,5.75t 18.25-1.75zM 271,152.5q 8.5,0 14.25,6.25
t 5.75,15.25q0,7.5 -4.25,13.25t-11.25,7.75q-1.5-7.5 -6-10.5q-3-2.5 -7.5-2.75t-9,0.25q-1.5-4 -1.5-8q0-9 5.5-15.25t 14-6.25z" horiz-adv-x="425"  />
<glyph unicode="&#x63;&#x69;&#x72;&#x63;&#x6c;&#x65;&#x73;&#x6c;&#x61;&#x73;&#x68;&#x64;&#x6f;&#x74;" d="M 212.5,429q 43.5,0 81.5-16.5t 66.25-44.75t 44.75-66.25t 16.5-81.5t-16.5-81.5t-44.75-66.5t-66.25-45t-81.5-16.5t-81.5,16.5t-66.5,45t-45,66.5t-16.5,81.5t 16.5,81.5t 45,66.25t 66.5,44.75t 81.5,16.5zM 264.5,324.5l-52,0 l-91.5-209l 52,0 zM 271,115.5q 13.5,0 23.25,9.5t 9.75,23t-9.75,23t-23.25,9.5t-23-9.5t-9.5-23
t 9.5-23t 23-9.5z" horiz-adv-x="425"  />
<glyph unicode="&#x72;&#x6f;&#x75;&#x6e;&#x64;&#x65;&#x64;&#x73;&#x70;&#x6f;&#x74;&#x69;&#x66;&#x79;" d="M 317,429q 21.5,0 40.5-8.25t 33.25-22.5t 22.5-33.25t 8.25-40.5l0-209 q0-21.5 -8.25-40.75t-22.5-33.5t-33.25-22.5t-40.5-8.25l-209.5,0 q-21.5,0 -40.5,8.25t-33.25,22.5t-22.5,33.5t-8.25,40.75l0,209 q0,21.5 8.25,40.5t 22.5,33.25t 33.25,22.5t 40.5,8.25l 209.5,0 zM 97,318.5q-7-4.5 -7-12q0-6 4.25-10.25t 10.25-4.25
q 1,0 1.5,0.25t 1.5,0.25q 24,9.5 49.25,14.5t 52.25,5t 52.25-5t 48.75-14.5q 1,0 1.75-0.25t 1.75-0.25q 6,0 10,4.25t 4,10.25q0,9 -8,12q-25.5,10 -53.25,15.5t-57.25,5.5q-30,0 -58-5.5t-54-15.5zM 209,266q 24,0 46.75-5t 43.75-14q 1,0 1.25-0.25t 1.25-0.25q 2.5,0 4.5,1.25t 3.5,2.75l 1.5,6q0,4.5 -3,7
q-23,10 -47.75,15.5t-51.75,5.5t-51.75-5.5t-47.75-15.5q-3.5-3.5 -3.5-7l 2-5.5q 2.5-4 7.5-4q 2.5,0 3.5,0.5q 42.5,18.5 90,18.5zM 295.5,208q 2,4 0,7.75t-5,4.75q-18.5,9.5 -39,13.75t-42.5,4.25q-44.5,0 -83-18.5q-1.5-1 -3.5-3.75t0-7.75q 2-5.5 5-6t 5,0.5q 36.5,17 76.5,17q 20,0 38.5-4.25t 36-11.75q 8.5-4 12,4z
M 308.5,100q 10,0 18.75,3.75t 15.75,9.75q-9,17.5 -22.5,32t-30.25,24.75t-36.25,16t-40.5,5.75q-22,0 -42-6t-37.25-17t-30.75-26.5t-22-34q 12.5-8.5 27.5-8.5l 32,0 q 12.5,17 31.25,27t 41.25,10t 41.5-10t 31-27l 22.5,0 z" horiz-adv-x="425"  />
<glyph unicode="&#x63;&#x69;&#x72;&#x63;&#x6c;&#x65;&#x6e;&#x65;&#x77;&#x73;&#x76;&#x69;&#x6e;&#x65;" d="M 212,430q 43.5,0 81.5-16.5t 66.5-44.75t 45-66.25t 16.5-81.5t-16.5-81.5t-45-66.5t-66.5-45t-81.5-16.5t-81.5,16.5t-66.25,45t-44.75,66.5t-16.5,81.5t 16.5,81.5t 44.75,66.25t 66.25,44.75t 81.5,16.5zM 225,202.5l0,51.5 l 31,22.5q 5-2.5 9.5-2.5q 7.5,0 12.75,5.5t 5.25,13t-5.5,13t-13,5.5t-13-5.5t-5.5-13q0-0.5 1-2.5
l-22.5-16.5l0,78 l-26,0 l0-41 l-22.5,16.5q 1,2 1,3.5q0,7.5 -5.5,13t-13,5.5q-8,0 -13.25-5.5t-5.25-13q0-8 5.5-13.25t 13-5.25q 4.5,0 8.5,2l 31.5-23l0-51.5 l-22.5,16.5q 1,2 1,3q0,7.5 -5.5,13t-13,5.5q-8,0 -13.25-5.5t-5.25-13t 5.5-13t 13-5.5q 4.5,0 8.5,2.5l 31.5-23.5l0-54.5 l-22,16.5q0,1 0.25,1.5t 0.25,1.5
q0,7.5 -5.5,13t-13,5.5q-8,0 -13.25-5.5t-5.25-13q0-8 5.5-13.25t 13-5.25q 4.5,0 8.5,2.5l 31.5-23.5l0-55 l 26,0 l0,18.5 l 31,22.5q 3.5-3 9.5-3q 7.5,0 12.75,5.5t 5.25,13q0,8 -5.5,13.25t-13,5.25t-13-5.25t-5.5-13.25q0-1 1-2l-22.5-16.5l0,55 l 31,22.5q 3.5-3 9.5-3q 7.5,0 12.75,5.5t 5.25,13q0,8 -5.5,13.25
t-13,5.25t-13-5.25t-5.5-13.25q0-1 1-2z" horiz-adv-x="425"  />
<glyph unicode="&#x63;&#x69;&#x72;&#x63;&#x6c;&#x65;&#x69;&#x63;&#x6f;&#x6e;&#x64;&#x6f;&#x63;&#x6b;" d="M 212,320.5q 11.5,0 19.75-8t 8.25-19q0-11.5 -8.25-19.25t-19.75-7.75t-19.5,7.75t-8,19.25q0,11 8,19t 19.5,8zM 212,429.5q 43.5,0 81.5-16.5t 66.5-44.75t 45-66.25t 16.5-81.5t-16.5-81.5t-45-66.5t-66.5-45t-81.5-16.5t-81.5,16.5t-66.25,45t-44.75,66.5t-16.5,81.5t 16.5,81.5t 44.75,66.25t 66.25,44.75
t 81.5,16.5zM 329.5,221q 1,6.5 -3,10.5q-3.5,4 -10,4l-2,0 l-38.5-3.5q-8-1 -9.5-5q-0.5-1 -0.25-2.5t 2.75-3.5q 6.5-7 13.5-9l 3.5-1.5l-2-3q-1.5-2.5 -7-6.5l-30.5-26q-1.5-1 -3.25-2.25t-3.75-1.25q-5.5,0 -5.5,8.5l0,74.5 l 1.5,0.5q 10.5,6.5 16.5,16.5t 6,22q0,9 -3.5,17.25t-9.75,14.25t-14.75,9.5t-18,3.5t-17.75-3.5t-14.5-9.5
t-10-14.25t-3.75-17.25q0-12.5 6.75-23t 18.25-16l 1.5-1l0-75 q0-8.5 -5.5-8.5q-4,0 -7,3l-33,28q-5,4.5 -6.5,6.5l-2.5,3l 4,1.5q 6.5,2 13.5,9q 3.5,3.5 2,6q-1,4 -9,5l-39,3.5l-1.5,0 q-6.5,0 -10-4q-4.5-4.5 -3.5-10.5l 4-37.5q 1.5-9 6.5-9q 1,0 2.25,0.25t 2.75,2.25q 3.5,3 6,6.75t 3.5,6.25l 1,3.5l 3.5-2
q 1-1 2.75-2.5t 4.25-4l 70-77q 4.5-5.5 11-5.5q 7,0 11.5,5.5l 70,77q 3.5,4.5 7,6.5l 3,2l 1.5-3.5q 1-2.5 3.5-6.25t 5.5-6.75q 2-2 3.25-2.25t 2.25-0.25q 2,0 3.75,2t 2.25,7z" horiz-adv-x="425"  />
</font>
</defs>
</svg>
